<?xml version="1.0" standalone="no"?>
<!DOCTYPE svg PUBLIC "-//W3C//DTD SVG 1.1//EN" "http://www.w3.org/Graphics/SVG/1.1/DTD/svg11.dtd" >
<svg xmlns="http://www.w3.org/2000/svg">
<metadata>Generated by IcoMoon</metadata>
<defs>
<font id="ico-digisalad" horiz-adv-x="1024">
<font-face units-per-em="1024" ascent="960" descent="-64" />
<missing-glyph horiz-adv-x="1024" />
<glyph unicode="&#x20;" horiz-adv-x="512" d="" />
<glyph unicode="&#xe900;" d="M682.667 661.333c0-33.948 13.487-66.505 37.491-90.51s56.563-37.49 90.509-37.49c33.946 0 66.505 13.486 90.509 37.49s37.491 56.562 37.491 90.51c0 33.948-13.487 66.505-37.491 90.51s-56.563 37.49-90.509 37.49c-33.946 0-66.505-13.486-90.509-37.49s-37.491-56.562-37.491-90.51z" />
<glyph unicode="&#xe901;" d="M566.609 124.25c4.992 16.943 22.801 26.654 39.748 21.666 16.951-4.988 26.654-22.797 21.666-39.748-30.34-103.159-180.407-103.159-210.749 0-4.986 16.951 4.716 34.761 21.667 39.748 16.947 4.988 34.756-4.723 39.748-21.666 12.326-41.907 75.593-41.907 87.919 0zM223.983 448c0 80.486 23.833 164.394 72.875 228.958 44.173 58.149 108.545 99.962 191.667 108.542v67.833c0 17.673 14.327 32 32 32 17.668-0.005 32-14.33 32-32v-67.542c18.509-1.685 36.254-4.884 53.167-9.458 17.045-4.623 27.11-22.197 22.498-39.25-4.621-17.047-22.195-27.112-39.249-22.5-20.604 5.569-43.383 8.624-68.416 8.625-77.065 0-134.082-34.111-172.709-84.959-39.272-51.702-59.834-121.403-59.834-190.25 0-80.188-5.373-133.611-28.666-202.667h528.835c-18.526 59.341-30.835 111.411-30.835 202.667 0 17.673 14.327 32 32 32s32-14.327 32-32c0-101.466 15.817-146.641 41.126-224.794 3.153-9.737 1.438-20.429-4.587-28.706-6.020-8.273-15.637-13.167-25.873-13.167h-618.667c-10.626 0-20.549 5.282-26.5 14.084-5.95 8.811-7.139 20.011-3.167 29.875 33.6 83.43 40.333 132.749 40.333 222.707z" />
<glyph unicode="&#xe902;" d="M746.667 789.333c0 70.692 57.306 128 128 128s128-57.308 128-128c0-70.692-57.306-128-128-128s-128 57.308-128 128z" />
<glyph unicode="&#xe903;" d="M468.207 492.791c17.664-0.009 31.996-14.336 32-32 0-17.668-14.336-31.987-32-32h-199.707c-17.673 0-32 14.327-32 32 0.006 17.668 14.33 32 32 32h199.707zM626.999 637.833c17.664-0.011 32-14.333 32-32-0.004-17.662-14.34-31.989-32-32h-358.499c-17.67 0-31.994 14.332-32 32 0 17.673 14.327 32 32 32h358.499zM266.667 106.752l220.915 160.457c9.109 6.609 20.083 10.163 31.334 10.167h302.417c29.457 0 53.333 23.876 53.333 53.333v202.624c0 17.673 14.327 32 32 32s32-14.327 32-32v-202.624c0-64.802-52.531-117.333-117.333-117.333h-298.918l-235.081-170.709c-35.254-25.587-84.662-0.397-84.667 43.166v127.543c-64.801 0-117.333 52.531-117.333 117.333v415.957c0 64.801 52.532 117.333 117.333 117.333h405.333c17.673 0 32-14.327 32-32s-14.327-32-32-32h-405.333c-29.455 0-53.333-23.878-53.333-53.333v-415.957c0-29.457 23.878-53.333 53.333-53.333h10.667c29.452 0 53.329-23.885 53.333-53.333v-117.291z" />
<glyph unicode="&#xe904;" d="M746.667 789.333c0 70.692 57.306 128 128 128s128-57.308 128-128c0-70.692-57.306-128-128-128s-128 57.308-128 128z" />
<glyph unicode="&#xe905;" d="M382.375 275.209c44.177-0.004 81.6-28.617 94.959-68.292h437.376c17.673 0 32-14.327 32-32-0.013-17.664-14.336-32-32-32h-437.376c-13.367-39.663-50.79-68.245-94.959-68.25h-68.291c-44.165 0.009-81.594 28.591-94.959 68.25h-109.958c-17.666 0-31.988 14.336-32 32 0 17.673 14.327 32 32 32h109.958c13.356 39.676 50.784 68.284 94.959 68.292h68.291zM314.083 211.209c-20.021-0.009-36.25-16.269-36.25-36.292 0.008-20.015 16.234-36.241 36.25-36.25h68.291c19.587 0.004 35.478 15.539 36.167 34.957-0.017 0.431-0.041 0.862-0.042 1.293 0 0.439 0.024 0.9 0.042 1.335-0.695 19.413-16.584 34.953-36.167 34.957h-68.291zM723.708 548.25c44.173-0.003 81.6-28.579 94.959-68.25h96.043c17.673 0 32-14.327 32-32s-14.327-32-32-32h-96.043c-13.363-39.667-50.786-68.245-94.959-68.25h-68.292c-44.169 0.009-81.596 28.582-94.959 68.25h-451.29c-17.673 0-32 14.327-32 32s14.327 32 32 32h451.29c13.359 39.667 50.79 68.243 94.959 68.25h68.292zM655.415 484.25c-20.019-0.009-36.25-16.226-36.25-36.25 0.004-20.023 16.23-36.241 36.25-36.25h68.292c19.593 0.004 35.486 15.535 36.169 34.957-0.017 0.431-0.043 0.862-0.043 1.293 0 0.448 0.021 0.892 0.043 1.331-0.704 19.413-16.589 34.914-36.169 34.918h-68.292zM382.375 821.333c44.181-0.003 81.604-28.612 94.959-68.292h120c17.673 0 32-14.327 32-32-0.013-17.664-14.332-32-32-32h-120c-13.367-39.657-50.794-68.246-94.959-68.25h-68.291c-44.162 0.007-81.591 28.595-94.959 68.25h-109.958c-17.666 0-31.988 14.336-32 32 0 17.673 14.327 32 32 32h109.958c13.354 39.679 50.78 68.285 94.959 68.292h68.291zM314.083 757.333c-20.016-0.009-36.241-16.234-36.25-36.25 0-20.023 16.229-36.282 36.25-36.292h68.291c20.025 0.005 36.25 16.266 36.25 36.292-0.009 20.018-16.23 36.245-36.25 36.25h-68.291z" />
<glyph unicode="&#xe906;" d="M917.333 458.667c0-229.751-186.249-416-416-416s-416 186.249-416 416c0 229.751 186.249 416 416 416s416-186.249 416-416z" />
<glyph unicode="&#xe907;" glyph-name="check-circle" d="M512 960c282.769 0 512-229.23 512-512s-229.231-512-512-512c-282.77 0-512 229.231-512 512s229.23 512 512 512zM833.084 684.208c-12.621 12.369-32.922 12.163-45.291-0.458l-388.168-396.125c-4.129-4.203-10.882-4.254-15.083-0.124l-148.75 146.667c-12.584 12.403-32.843 12.245-45.25-0.333-11.627-11.802-12.223-30.34-1.875-42.833l2.208-2.419 148.708-146.667c29.425-29.009 76.825-28.591 105.75 0.917l388.207 396.084c12.369 12.622 12.16 32.922-0.457 45.292z" />
<glyph unicode="&#xe908;" glyph-name="close-text" d="M128.167 448.004c0 212.076 171.94 384.017 384.017 384.017 212.066-0.005 383.979-171.924 383.991-383.987 0-212.079-171.942-384.021-384.021-384.021-212.064 0.013-383.983 171.921-383.987 383.991zM318.997 641.308c-12.489-12.494-12.486-32.759 0-45.255l147.99-147.989-148.078-148.083c-12.489-12.493-12.486-32.759 0-45.252 12.495-12.497 32.758-12.493 45.255 0l148.080 148.079 148.079-148.079c12.497-12.484 32.764-12.489 45.257 0 12.484 12.493 12.48 32.759 0 45.252l-148.079 148.083 147.989 147.989c12.484 12.498 12.493 32.762 0 45.255-12.493 12.484-32.759 12.483-45.252 0l-147.994-147.992-147.991 147.992c-12.494 12.485-32.76 12.484-45.255 0z" />
<glyph unicode="&#xe909;" glyph-name="chkbox1" d="M810.667 864c64.802 0 117.333-52.532 117.333-117.333v-597.333c0-64.802-52.531-117.333-117.333-117.333h-597.333c-64.801 0-117.333 52.531-117.333 117.333v597.333c0 64.801 52.532 117.333 117.333 117.333h597.333zM790.707 641.208c-12.45 12.531-32.713 12.609-45.248 0.167l-332.751-330.668c-0.827-0.815-2.024-1.361-3.5-1.374-1.486-0.013-2.73 0.516-3.583 1.331l-127.459 122.419-2.458 2.167c-12.772 10.001-31.312 8.866-42.792-3.085-11.464-11.947-11.825-30.477-1.333-42.833l2.25-2.415 127.5-122.419c26.941-25.856 69.997-25.502 96.501 0.836l332.706 330.623c12.531 12.454 12.612 32.714 0.166 45.25z" />
<glyph unicode="&#xe90a;" glyph-name="account" d="M913.749 518.187c0 2.21-1.788 4.002-3.998 4.002h-324.002c-2.202-0.009-3.998-1.796-3.998-4.002v-467.998c0.004-2.202 1.801-3.994 3.998-4.002h324.002c2.206 0 3.994 1.796 3.998 4.002v467.998zM46.167 218.978v586.001c0 74.227 60.19 134.417 134.417 134.417h354.999l6.127-0.583c6.029-1.179 11.648-4.082 16.124-8.417l216.209-209.292c6.225-6.028 9.707-14.336 9.707-23v-58.125c-0.009-17.666-14.332-32-32-32-17.66 0.009-31.991 14.34-32 32v26.125h-132.996c-45.943 0.009-83.17 37.264-83.17 83.208v126.083h-322.999c-38.881 0-70.417-31.536-70.417-70.417v-586.001c0.009-38.874 31.541-70.374 70.417-70.374h278.958c17.673 0 31.996-14.332 32-32 0-17.673-14.327-32-32-32h-278.958c-74.221 0-134.408 60.156-134.417 134.374zM261.292 217.604v11.042c-4.911 0.61-9.834 1.37-14.75 2.581-15.968 3.947-30.117 11.055-45.958 21.419-14.785 9.677-18.924 29.504-9.25 44.292 9.679 14.775 29.507 18.918 44.291 9.25 11.918-7.795 19.249-10.957 25.667-12.625v99.456c-14.059 6.669-26.632 13.862-37.167 22.127-28.009 21.982-33.701 57.946-27.167 86.498 6.732 29.397 27.857 58.971 63.625 69.751 0.233 0.070 0.477 0.14 0.708 0.208v11.792c0 17.673 14.327 32 32 32 17.672-0.002 32-14.328 32-32v-8.583c26.938-6.001 44.167-20.477 50.542-27.792 11.609-13.326 10.201-33.557-3.125-45.167-13.326-11.597-33.52-10.197-45.125 3.123 0.404-0.461-0.351 0.363-2.292 1.668v-70.626c3.195-1.169 6.471-2.487 9.917-3.708 27.521-9.728 47.543-27.644 58.75-50.291 10.982-22.195 12.492-46.899 7.167-69.291-8.512-35.763-35.593-68.975-75.834-80.875v-14.251c0-17.673-14.328-32-32-32s-32 14.327-32 32zM795.166 351.979c17.673 0 32-14.327 32-32-0.009-17.664-14.332-32-32-32h-153.583c-17.668 0-31.991 14.336-32 32 0 17.673 14.327 32 32 32h153.583zM325.292 303.979c6.708 6.413 11.45 14.613 13.583 23.582 2.308 9.715 1.27 18.889-2.292 26.086-2.156 4.352-5.639 8.819-11.292 12.663v-62.332zM857.583 454.396c17.664-0.009 32-14.332 32-32s-14.336-31.991-32-32h-216c-17.673 0-32 14.327-32 32s14.327 32 32 32h216zM261.292 493.269c-0.783-1.873-1.482-3.836-1.958-5.914-2.068-9.041-0.296-15.441 1.958-19.085v24.998zM407.958 704.812c17.668 0 31.991-14.334 31.999-32 0-17.673-14.326-32-31.999-32h-216c-17.669 0.005-32 14.33-32 32 0.009 17.663 14.336 31.996 32 32h216zM407.958 812.812c17.668 0 31.991-14.334 31.999-32 0-17.673-14.326-32-31.999-32h-216c-17.669 0.005-32 14.33-32 32 0.009 17.663 14.336 31.996 32 32h216zM977.749 50.189c-0.004-37.555-30.447-68.002-67.998-68.002h-324.002c-37.547 0.009-67.994 30.455-67.998 68.002v467.998c0 37.551 30.451 67.992 67.998 68.001h324.002c37.555 0 67.998-30.444 67.998-68.001v-467.998zM567.582 749.312c0-10.598 8.572-19.199 19.17-19.208h85.914l-105.084 101.75v-82.542z" />
<glyph unicode="&#xe90b;" glyph-name="add-calendar" d="M778.667 0v117.333h-117.333c-17.673 0-32 14.327-32 32s14.327 32 32 32h117.333v117.333c0 17.673 14.327 32 32 32s32-14.327 32-32v-117.333h117.333c17.673 0 32-14.327 32-32s-14.327-32-32-32h-117.333v-117.333c0-17.673-14.327-32-32-32s-32 14.327-32 32zM821.333 405.333v256c0 29.455-23.876 53.333-53.333 53.333h-512c-29.455 0-53.333-23.878-53.333-53.333v-512c0-29.457 23.878-53.333 53.333-53.333h298.667c17.673 0 32-14.327 32-32s-14.327-32-32-32h-298.667c-64.801 0-117.333 52.531-117.333 117.333v512c0 64.801 52.532 117.333 117.333 117.333h512c64.802 0 117.333-52.532 117.333-117.333v-256c0-17.673-14.327-32-32-32s-32 14.327-32 32zM650.667 661.333v170.667c0 17.673 14.327 32 32 32s32-14.327 32-32v-170.667c0-17.673-14.327-32-32-32s-32 14.327-32 32zM309.333 661.333v170.667c0 17.673 14.327 32 32 32s32-14.327 32-32v-170.667c0-17.673-14.327-32-32-32s-32 14.327-32 32zM853.333 565.333c17.673 0 32-14.327 32-32s-14.327-32-32-32h-682.667c-17.673 0-32 14.327-32 32s14.327 32 32 32h682.667z" />
<glyph unicode="&#xe90c;" glyph-name="archieve" d="M138.667 116.322v473.376h64v-473.376c0.009-5.884 4.781-10.667 10.667-10.667h597.419c5.879 0.009 10.658 4.787 10.667 10.667v473.376h64v-473.376c-0.009-41.225-33.442-74.658-74.667-74.667h-597.419c-41.232 0-74.658 33.438-74.667 74.667zM149.333 641h725.333v149.333h-725.333v-149.333zM938.667 630.333c0-29.455-23.876-53.333-53.333-53.333h-746.667c-29.455 0-53.333 23.878-53.333 53.333v170.667c0 29.455 23.878 53.333 53.333 53.333h746.667c29.457 0 53.333-23.878 53.333-53.333v-170.667zM357.833 380.847c0 17.677 14.327 32 32 32s32-14.323 32-32v-38.955h180.377v38.955c0 17.677 14.323 32 32 32 17.66-0.009 32-14.332 32-32v-70.955c-0.004-17.668-14.34-31.991-32-32h-244.377c-17.672 0-31.998 14.327-32 32v70.955z" />
<glyph unicode="&#xe90d;" glyph-name="arrow-down" d="M480 149.333v640c0 17.673 14.327 32 32 32s32-14.327 32-32v-640c0-17.673-14.327-32-32-32s-32 14.327-32 32zM700.753 383.168c11.315 13.568 31.509 15.394 45.082 4.083 13.572-11.315 15.398-31.509 4.087-45.082l-206.793-248.128c-16.205-19.43-46.046-19.43-62.251 0l-206.792 248.128c-11.312 13.572-9.486 33.766 4.083 45.082 13.574 11.311 33.768 9.485 45.083-4.083l188.751-226.5 188.749 226.5z" />
<glyph unicode="&#xe90e;" glyph-name="arrow-left" d="M213.333 416c-17.673 0-32 14.327-32 32s14.327 32 32 32h640c17.673 0 32-14.327 32-32s-14.327-32-32-32h-640zM406.199 685.918c13.574 11.312 33.766 9.486 45.082-4.083 11.315-13.574 9.489-33.768-4.083-45.083l-226.54-188.752 226.54-188.749c13.572-11.315 15.398-31.509 4.083-45.082s-31.508-15.394-45.082-4.083l-248.125 206.793c-19.433 16.201-19.433 46.046 0 62.246l248.125 206.793z" />
<glyph unicode="&#xe90f;" glyph-name="arrow-right" d="M810.667 480c17.673 0 32-14.327 32-32s-14.327-32-32-32h-640c-17.673 0-32 14.327-32 32s14.327 32 32 32h640zM869.329 475.959c14.895-15.582 14.895-40.333 0-55.915l-3.418-3.166-248.124-206.793c-13.572-11.311-33.766-9.489-45.082 4.083-11.311 13.572-9.489 33.766 4.083 45.082l226.539 188.749-226.539 188.752c-13.572 11.315-15.394 31.509-4.083 45.083 11.315 13.569 31.509 15.395 45.082 4.083l248.124-206.793 3.418-3.166z" />
<glyph unicode="&#xe910;" glyph-name="arrow-up" d="M480 106.667v640c0 17.673 14.327 32 32 32s32-14.327 32-32v-640c0-17.673-14.327-32-32-32s-32 14.327-32 32zM484.045 805.377c15.582 14.893 40.337 14.893 55.919 0l3.166-3.417 206.793-248.125c11.311-13.574 9.485-33.767-4.087-45.082s-33.766-9.489-45.082 4.083l-188.749 226.54-188.751-226.54c-11.315-13.572-31.509-15.398-45.083-4.083-13.569 11.315-15.395 31.508-4.083 45.082l206.792 248.125 3.166 3.417z" />
<glyph unicode="&#xe911;" glyph-name="at" d="M693.751 650.959c3.61 17.3 20.574 28.401 37.875 24.791 17.284-3.619 28.352-20.543 24.747-37.833l-67.081-321.501c-14.929-71.612 72.41-118.831 124.164-67.123 3.844 3.836 6.921 7.684 9.25 11.541 32.977 54.618 51.959 118.626 51.959 187.166 0 200.295-162.372 362.667-362.667 362.667s-362.667-162.371-362.667-362.667c0-200.294 162.371-362.667 362.667-362.667 46.281 0 90.47 8.666 131.085 24.418 16.474 6.383 35.025-1.818 41.417-18.291 6.379-16.474-1.822-34.991-18.291-41.378-47.872-18.564-99.887-28.749-154.21-28.749-235.642 0-426.667 191.027-426.667 426.667 0 235.642 191.025 426.667 426.667 426.667 235.639 0 426.667-191.025 426.667-426.667 0-80.525-22.332-155.934-61.167-220.25-5.466-9.050-11.968-16.93-18.79-23.753-96.742-96.649-259.972-8.358-232.043 125.504l67.085 321.457zM497.468 703.958c138.381 0 242.598-125.937 216.708-261.876l-13.461-70.75c-19.823-104.030-110.801-179.285-216.708-179.29-138.384 0-242.604 125.935-216.707 261.875l13.458 70.707c19.82 104.041 110.797 179.331 216.71 179.333zM497.468 639.958c-75.185-0.003-139.765-53.436-153.835-127.293l-13.458-70.707c-18.384-96.503 55.596-185.916 153.832-185.916 75.183 0.004 139.763 53.436 153.835 127.292l13.457 70.707c18.385 96.502-55.595 185.917-153.83 185.917z" />
<glyph unicode="&#xe912;" glyph-name="attachment" d="M644.117 805.304c50.701 57.269 138.223 62.684 195.58 12.084l52.002-45.917c57.425-50.665 62.912-138.281 12.25-195.708l-421.999-478.333c-74.051-83.93-202.112-91.921-286.043-17.877l-40.666 35.878c-83.922 74.052-91.924 202.112-17.875 286.042l298.377 337.915c11.904 11.010 30.451 11.459 42.871 0.5 13.257-11.692 14.485-31.914 2.795-45.167l-296.043-335.583c-50.667-57.429-45.219-145.084 12.209-195.75l40.666-35.836c57.423-50.662 145.039-45.205 195.709 12.211l421.999 478.333c27.281 30.922 24.337 78.092-6.583 105.375l-51.998 45.917c-30.886 27.249-78.033 24.338-105.335-6.5l-392.208-443.041c-11.726-13.248-10.476-33.502 2.792-45.21l31.167-27.499c13.23-11.665 33.423-10.406 45.125 2.79l311.96 351.875c11.721 13.22 31.94 14.422 45.167 2.708 13.218-11.721 14.46-31.943 2.748-45.167l-312-351.875c-35.113-39.603-95.645-43.311-135.333-8.29l-31.167 27.456c-39.803 35.119-43.556 95.881-8.375 135.625l392.21 443.043z" />
<glyph unicode="&#xe913;" glyph-name="auto-added-1" d="M821.333 106.667v132.335c-67.098-99.119-180.557-164.335-309.333-164.335-184.463 0-337.65 133.756-367.917 309.585l-2.542 17.122-0.25 3.251c-0.378 16.218 11.603 30.4 28.042 32.457 16.448 2.052 31.552-8.759 35.167-24.58l0.541-3.209 2.125-14.208c25.085-145.621 152.045-256.418 304.833-256.418 112.235 0 210.522 59.802 264.751 149.333h-136.751c-17.673 0-32 14.327-32 32s14.327 32 32 32h213.333c17.673 0 32-14.327 32-32v-213.333c0-17.673-14.327-32-32-32s-32 14.327-32 32zM512 821.333c184.465 0 337.651-133.754 367.915-309.585l2.543-17.122 0.252-3.251c0.375-16.218-11.605-30.4-28.045-32.457-16.444-2.052-31.548 8.759-35.166 24.58l-0.542 3.209-2.125 14.208c-25.084 145.62-152.043 256.418-304.832 256.418-112.233 0-210.523-59.801-264.75-149.333h136.75c17.673 0 32-14.327 32-32s-14.327-32-32-32h-213.333c-17.673 0-32 14.327-32 32v213.333c0 17.673 14.327 32 32 32s32-14.327 32-32v-132.292c67.098 99.1 180.57 164.292 309.333 164.292z" />
<glyph unicode="&#xe914;" glyph-name="auto-added" d="M864 305.459c-110.135-38.929-228.621-60.126-352-60.126-123.378 0-241.864 21.197-352 60.126v-156.126c0-29.457 23.878-53.333 53.333-53.333h597.333c29.457 0 53.333 23.876 53.333 53.333v156.126zM512.418 437.333c17.673 0 32-14.327 32-32s-14.327-32-32-32h-0.418c-17.673 0-32 14.327-32 32s14.327 32 32 32h0.418zM864 576c0 29.455-23.876 53.333-53.333 53.333h-597.333c-29.455 0-53.333-23.878-53.333-53.333v-202.377c109.359-41.515 227.983-64.29 352-64.29 124.019 0 242.641 22.775 352 64.29v202.377zM650.667 746.667c0 29.455-23.876 53.333-53.333 53.333h-170.667c-29.455 0-53.333-23.878-53.333-53.333v-53.333h277.333v53.333zM714.667 693.333h96c64.802 0 117.333-52.532 117.333-117.333v-426.667c0-64.802-52.531-117.333-117.333-117.333h-597.333c-64.801 0-117.333 52.531-117.333 117.333v426.667c0 64.801 52.532 117.333 117.333 117.333h96v53.333c0 64.801 52.532 117.333 117.333 117.333h170.667c64.802 0 117.333-52.532 117.333-117.333v-53.333z" />
<glyph unicode="&#xe915;" glyph-name="badge-check" d="M396.628 818.357c66.511 56.666 164.328 56.674 230.833 0 18.249-15.551 40.934-24.968 64.832-26.875 87.104-6.952 156.254-76.109 163.209-163.209 1.907-23.902 11.324-46.625 26.876-64.875 56.67-66.507 56.678-164.329 0-230.833-15.548-18.249-24.969-40.934-26.876-64.832-6.95-87.104-76.105-156.258-163.209-163.209-23.898-1.907-46.583-11.328-64.832-26.876-66.505-56.674-164.322-56.67-230.833 0-18.25 15.552-40.973 24.969-64.875 26.876-87.099 6.955-156.256 76.105-163.209 163.209-1.907 23.898-11.324 46.583-26.875 64.832-56.674 66.505-56.666 164.326 0 230.833 15.553 18.25 24.968 40.973 26.875 64.875 6.957 87.096 76.112 156.252 163.209 163.209 23.902 1.907 46.625 11.322 64.875 26.875zM585.92 769.649c-42.586 36.277-105.207 36.281-147.793 0-28.5-24.288-63.964-38.98-101.291-41.958-55.762-4.46-100.040-48.738-104.5-104.5-2.979-37.327-17.67-72.791-41.958-101.292-36.281-42.581-36.277-105.207 0-147.793 24.288-28.501 38.98-63.962 41.958-101.291 4.455-55.765 48.735-100.041 104.5-104.499 37.327-2.978 72.791-17.673 101.291-41.958 42.586-36.288 105.207-36.284 147.793 0 28.501 24.286 63.962 38.98 101.291 41.958 55.77 4.454 100.045 48.73 104.499 104.499 2.978 37.329 17.673 72.789 41.958 101.291 36.284 42.59 36.288 105.207 0 147.793-24.286 28.5-38.98 63.964-41.958 101.292-4.459 55.765-48.734 100.045-104.499 104.5-37.329 2.979-72.789 17.67-101.291 41.958zM617.421 555.94c12.497 12.497 32.751 12.497 45.248 0 12.48-12.498 12.493-32.757 0-45.25l-170.667-170.667c-12.493-12.493-32.751-12.48-45.248 0l-85.335 85.333-2.208 2.458c-10.246 12.57-9.505 31.078 2.208 42.79 11.714 11.716 30.223 12.459 42.792 2.21l2.458-2.21 62.707-62.707 148.045 148.043z" />
<glyph unicode="&#xe916;" glyph-name="badge" d="M196.282 377.92c9.181 15.091 28.859 19.883 43.958 10.705 15.094-9.178 19.884-28.86 10.708-43.955l-106.292-174.959c-6.483-10.671 0.25-25.395 14.333-26.458l73.625-5.585 3.709-0.499c8.488-1.655 16.002-6.686 20.75-14.042l39.667-61.5c7.276-11.264 24.352-11.004 31.292 0.414l99.334 163.46c9.178 15.1 28.855 19.925 43.955 10.748 15.104-9.173 19.883-28.855 10.709-43.955l-99.29-163.503c-31.497-51.823-106.885-52.77-139.75-1.83l-31.084 48.124-57.75 4.373c-60.431 4.574-96.148 70.878-64.208 123.46l106.333 175.002zM795.665 305.293c-45.918-53.978-107.273-94.66-177.374-115.375l77.709-127.876c6.942-11.422 24.017-11.648 31.292-0.375l39.667 61.457 2.206 3.004c5.508 6.673 13.517 10.876 22.251 11.541l73.668 5.581c13.986 1.071 20.698 15.603 14.417 26.253l-83.836 135.791zM818.5 540.625c-0.004 166.415-136.823 302.042-306.5 302.042-169.674-0.002-306.496-135.628-306.5-302.042 0-166.417 136.823-302.042 306.5-302.042 109.231 0 205.001 56.247 259.29 140.877l2.419 3.29c6.097 7.266 15.168 11.541 24.789 11.46 10.991-0.102 21.146-5.862 26.918-15.211l108.668-176.081c31.94-52.582-3.776-118.891-64.209-123.46l-57.792-4.373-31.002-48.128c-32.858-50.931-108.245-49.971-139.75 1.835h-0.038l-89.877 147.874c-12.954-1.353-26.103-2.082-39.415-2.082-204.221 0-370.5 163.482-370.5 366.042 0.004 202.557 166.281 366.039 370.5 366.042 204.22 0 370.496-163.484 370.5-366.042 0-1.083-0.038-3.497-0.043-3.709-0.166-17.672-14.622-31.871-32.29-31.709-17.668 0.171-31.868 14.626-31.71 32.293 0.021 2.183 0.043 1.959 0.043 3.125zM600.67 646.537c10.633 14.115 30.673 16.925 44.791 6.292 14.11-10.632 16.956-30.676 6.332-44.791l-104.166-138.252c-22.293-29.589-64.474-33.899-92.207-10.833l-5.333 5.001-54.668 56.96c-12.236 12.751-11.834 33.013 0.916 45.249 12.752 12.237 33.012 11.793 45.248-0.958l54.711-57.001h0.081c0.047 0.004 0.073 0.038 0.085 0.043l0.038 0.043 104.171 138.249z" />
<glyph unicode="&#xe917;" glyph-name="barcode-scan" d="M85.333 170.645v149.333c0 17.673 14.327 32 32 32s32-14.327 32-32v-149.333c0.002-17.673 14.328-32 32-32h182.667c17.673 0 32-14.327 32-32-0.002-17.673-14.328-32-32-32h-182.667c-53.018 0-95.998 42.982-96 96zM874.667 170.645v149.333c0 17.673 14.327 32 32 32s32-14.327 32-32v-149.333c0-53.018-42.982-96-96-96h-182.665c-17.673 0-32 14.327-32 32s14.323 32 32 32h182.665c17.673 0 32 14.327 32 32zM85.333 576.021v149.333c0 53.019 42.981 96 96 96h182.667c17.673 0 32-14.327 32-32s-14.327-32-32-32h-182.667c-17.673 0-32-14.327-32-32v-149.333c0-17.673-14.327-32-32-32s-32 14.327-32 32zM874.667 576.021v149.333c0 17.673-14.327 32-32 32h-182.665c-17.677 0-32 14.327-32 32s14.323 32 32 32h182.665c53.018 0 96-42.981 96-96v-149.333c0-17.673-14.327-32-32-32s-32 14.327-32 32zM215.667 256.64v63.211c0.007 17.664 14.331 32 32 32s31.992-14.336 32-32v-63.211c-0.007-17.668-14.331-32-32-32s-31.993 14.332-32 32zM215.667 448.017v191.332c0 17.673 14.327 32 32 32s32-14.327 32-32v-191.332c0-17.673-14.327-32-32-32s-32 14.327-32 32zM608 456.183v183.165c0 17.673 14.327 32 32 32s32-14.327 32-32v-183.165c-0.009-17.668-14.332-32-32-32s-31.991 14.332-32 32zM480 257.139v62.545c0.009 17.664 14.332 32 32 32s31.991-14.336 32-32v-62.545c0-17.673-14.327-32-32-32s-32 14.327-32 32zM480 457.101v182.248c0 17.673 14.327 32 32 32s32-14.327 32-32v-182.248c0-17.677-14.327-32-32-32s-32 14.323-32 32zM347.833 309.513v10.496c0.003 17.673 14.329 32 32 32s31.997-14.327 32-32v-10.496c0-17.677-14.327-32-32-32s-32 14.323-32 32zM347.833 448.094v190.917c0 17.673 14.327 32 32 32s32-14.327 32-32v-190.917c0-17.673-14.327-32-32-32s-32 14.327-32 32zM744.333 257.118v62.545c0 17.673 14.327 32 32 32s32-14.327 32-32v-62.545c-0.009-17.664-14.332-32-32-32s-31.991 14.336-32 32zM744.333 578.203v60.666c0 17.673 14.327 32 32 32s32-14.327 32-32v-60.666c0-17.673-14.327-32-32-32s-32 14.327-32 32zM896 480.004c17.673 0 32-14.327 32-32s-14.327-32-32-32h-768c-17.673 0-32 14.327-32 32s14.327 32 32 32h768z" />
<glyph unicode="&#xe918;" glyph-name="barcode" d="M85.333 170.645v149.333c0 17.673 14.327 32 32 32s32-14.327 32-32v-149.333c0.002-17.673 14.328-32 32-32h182.667c17.673 0 32-14.327 32-32-0.002-17.673-14.328-32-32-32h-182.667c-53.018 0-95.998 42.982-96 96zM874.667 170.645v149.333c0 17.673 14.327 32 32 32s32-14.327 32-32v-149.333c0-53.018-42.982-96-96-96h-182.665c-17.673 0-32 14.327-32 32s14.323 32 32 32h182.665c17.673 0 32 14.327 32 32zM85.333 576.021v149.333c0 53.019 42.981 96 96 96h182.667c17.673 0 32-14.327 32-32s-14.327-32-32-32h-182.667c-17.673 0-32-14.327-32-32v-149.333c0-17.673-14.327-32-32-32s-32 14.327-32 32zM874.667 576.021v149.333c0 17.673-14.327 32-32 32h-182.665c-17.677 0-32 14.327-32 32s14.323 32 32 32h182.665c53.018 0 96-42.981 96-96v-149.333c0-17.673-14.327-32-32-32s-32 14.327-32 32zM215.667 256.64v382.709c0 17.673 14.327 32 32 32s32-14.327 32-32v-382.709c-0.007-17.668-14.331-32-32-32s-31.993 14.332-32 32zM608 366.434v272.915c0 17.673 14.327 32 32 32s32-14.327 32-32v-272.915c0-17.677-14.327-32-32-32s-32 14.323-32 32zM480 366.434v68.207c0 17.673 14.327 32 32 32s32-14.327 32-32v-68.207c0-17.677-14.327-32-32-32s-32 14.323-32 32zM480 571.099v68.25c0 17.673 14.327 32 32 32s32-14.327 32-32v-68.25c-0.009-17.666-14.332-32-32-32s-31.991 14.334-32 32zM347.833 366.758v272.252c0 17.673 14.327 32 32 32s32-14.327 32-32v-272.252c0-17.673-14.327-32-32-32s-32 14.327-32 32zM744.333 257.118v190.878c0 17.673 14.327 32 32 32s32-14.327 32-32v-190.878c-0.009-17.664-14.332-32-32-32s-31.991 14.336-32 32zM744.333 578.203v60.666c0 17.673 14.327 32 32 32s32-14.327 32-32v-60.666c0-17.673-14.327-32-32-32s-32 14.327-32 32z" />
<glyph unicode="&#xe919;" glyph-name="bell-silent" d="M138.667 250.999v23.501c0 56.427 39.834 103.556 92.916 114.79v119.625c0 3.874 0.052 7.744 0.209 11.584 0.724 17.655 15.636 31.386 33.292 30.668 17.658-0.719 31.386-15.633 30.667-33.292-0.121-2.97-0.166-5.956-0.167-8.96v-149.082c0-17.668-14.332-31.996-32-32h-7.583c-29.455 0-53.333-23.876-53.333-53.333v-23.501c0.010-29.444 23.884-53.333 53.333-53.333h402.334c10.257 0 19.9-4.898 25.916-13.21 6.012-8.307 7.697-19.004 4.501-28.749l-30.417 9.958 30.374-10.001v-0.038c-0.009-0.034-0.026-0.077-0.043-0.128-0.034-0.107-0.102-0.265-0.166-0.457-0.128-0.388-0.311-0.947-0.542-1.626-0.457-1.348-1.071-3.238-1.83-5.376-1.446-4.058-3.61-9.826-5.751-14.665-10.684-24.141-22.157-41.446-39.249-58.543-16.956-16.956-37.099-30.404-59.251-39.582-22.157-9.178-45.935-13.918-69.918-13.918-23.979 0-47.723 4.74-69.875 13.918-22.155 9.178-42.291 22.626-59.249 39.582-16.852 16.853-30.243 36.838-39.417 58.833h-87.417c-64.795 0-117.323 52.54-117.333 117.333zM416.583 133.666c3.518-4.774 7.288-9.37 11.5-13.581 11.017-11.017 24.107-19.75 38.498-25.711 14.387-5.956 29.807-9.041 45.376-9.041 15.578 0 31.027 3.081 45.419 9.041 14.383 5.961 27.447 14.703 38.455 25.711 4.39 4.386 8.094 8.806 11.584 13.581h-190.832zM821.333 250.999v23.501c0 29.457-23.876 53.333-53.333 53.333h-7.582c-17.668 0.009-32 14.332-32 32v149.082c-0.009 119.526-96.892 216.418-216.418 216.418-68.198-0.001-129.029-31.499-168.75-80.875-11.078-13.771-31.229-15.952-45-4.875-13.747 11.075-15.929 31.194-4.875 44.959 51.347 63.83 130.225 104.791 218.625 104.791 154.871 0 280.41-125.545 280.418-280.418v-119.625c53.086-11.23 92.915-58.359 92.915-114.79v-23.501c-0.009-50.948-32.482-94.234-77.751-110.46-16.631-5.948-34.953 2.705-40.913 19.337-5.956 16.631 2.701 34.953 19.332 40.917 20.638 7.394 35.324 27.127 35.332 50.206zM545.165 768.010v9.375c0 18.318-14.848 33.167-33.165 33.167s-33.165-14.849-33.165-33.167v-12.875c0-17.673-14.327-32-32-32-17.677 0-32.002 14.327-32.002 32v12.875c0 53.664 43.505 97.167 97.167 97.167s97.165-43.503 97.165-97.167v-9.375c0-17.673-14.323-32-32-32-17.673 0-32 14.327-32 32zM148.039 811.961c12.497 12.497 32.753 12.497 45.25 0l703.999-704.001c12.497-12.497 12.497-32.751 0-45.248s-32.751-12.497-45.248 0l-704.001 703.999c-12.497 12.497-12.497 32.753 0 45.25z" />
<glyph unicode="&#xe91a;" d="M501.325 874.646c110.259-0.213 215.953-44.078 293.918-122.042 77.969-77.969 121.873-183.693 122.082-293.959-0.004-82.266-24.418-162.679-70.123-231.083-45.709-68.407-110.656-121.762-186.667-153.25-76.015-31.488-159.68-39.718-240.375-23.667s-154.822 55.697-213 113.877c-58.175 58.176-97.783 132.305-113.833 212.996-16.049 80.695-7.817 164.325 23.667 240.335 31.486 76.014 84.797 140.998 153.208 186.708s148.849 70.083 231.123 70.083zM747.742 625.812c-12.617 12.362-32.922 12.146-45.291-0.458l-276.166-281.832-105.167 103.667c-12.579 12.395-32.842 12.228-45.25-0.337-12.398-12.582-12.244-32.841 0.334-45.248l106.208-104.751c24.621-24.277 64.297-23.94 88.502 0.751l277.291 282.917c12.352 12.623 12.156 32.927-0.461 45.292z" />
<glyph unicode="&#xe91b;" d="M1024 448c0-282.77-229.23-512-512-512s-512 229.23-512 512c0 282.77 229.23 512 512 512s512-229.23 512-512z" />
<glyph unicode="&#xe91c;" d="M700.864 485.297c29.263-16.256 29.263-58.338 0-74.594l-253.476-140.821c-28.439-15.799-63.388 4.766-63.388 37.297v281.643c0 32.531 34.948 53.097 63.388 37.297l253.476-140.821z" />
<glyph unicode="&#xe91d;" d="M1024 448c0-282.77-229.23-512-512-512s-512 229.23-512 512c0 282.77 229.23 512 512 512s512-229.23 512-512z" />
<glyph unicode="&#xe91e;" d="M362.667 640h42.667c11.782 0 21.333-9.551 21.333-21.333v-170.667h170.667v170.667c0 11.782 9.551 21.333 21.333 21.333h42.667c11.782 0 21.333-9.551 21.333-21.333v-341.333c0-11.782-9.551-21.333-21.333-21.333h-42.667c-11.782 0-21.333 9.551-21.333 21.333v170.667h-170.667v-170.667c0-11.782-9.551-21.333-21.333-21.333h-42.667c-11.782 0-21.333 9.551-21.333 21.333v341.333c0 11.782 9.551 21.333 21.333 21.333z" />
<glyph unicode="&#xe91f;" glyph-name="airplane" d="M864 780.791c0 10.584-8.614 19.209-19.209 19.209-24.29-0.001-47.573-9.659-64.751-26.833-58.372-58.374-177.353-177.31-281.707-281.668-52.177-52.173-100.683-100.723-136.167-136.209-17.741-17.741-32.246-32.201-42.292-42.249-5.023-5.022-8.925-8.964-11.583-11.622-1.326-1.327-2.36-2.321-3.042-3.004-0.34-0.337-0.577-0.619-0.75-0.789-0.081-0.081-0.165-0.124-0.208-0.166l-0.042-0.085h-0.042c-6-5.995-14.142-9.374-22.625-9.374h-102.417c-4.909 0-9.359-1.882-12.75-4.915l106.042-63.667 3.25-2.21c3.083-2.411 5.726-5.376 7.75-8.751l63.584-105.997c3.143 3.507 4.958 8.013 4.958 12.749v102.374c0 8.482 3.379 16.623 9.375 22.626l22.625-22.626c-22.627 22.626-22.628 22.665-22.625 22.669l0.25 0.247c0.173 0.175 0.452 0.41 0.791 0.751 0.682 0.683 1.674 1.715 3 3.042 2.659 2.658 6.602 6.558 11.625 11.584 10.046 10.044 24.509 24.55 42.25 42.291 35.484 35.486 84.034 83.989 136.207 136.166 104.358 104.356 223.292 223.333 281.668 281.708 17.173 17.177 26.829 40.461 26.833 64.75zM602.624 391.002l148.126-275.042c16.576 23.206 22.959 52.873 16.166 81.749-14.989 63.71-35.307 150.050-51.874 220.459-6.063 25.758-11.635 49.391-16.252 69.001-31.97-31.97-64.708-64.708-96.166-96.166zM261.708 702.917c-28.862 6.788-58.544 0.439-81.75-16.125l275.001-148.125c31.458 31.458 64.196 64.196 96.166 96.167-19.597 4.611-43.221 10.152-68.958 16.208-70.411 16.568-156.748 36.88-220.459 51.875zM928 780.791c-0.004-41.264-16.41-80.821-45.585-110-30.498-30.501-77.564-77.522-130.415-130.375 1.229-5.229 2.722-11.542 4.416-18.749 5.278-22.421 12.634-53.636 20.919-88.836 16.563-70.409 36.881-156.745 51.874-220.459 15.77-67.029-11.755-136.802-69.043-174.997-7.497-5.001-16.759-6.596-25.498-4.416-8.742 2.18-16.149 7.945-20.42 15.872l-158.831 294.959c-34.56-34.56-65.937-65.937-90.876-90.876-17.741-17.741-32.205-32.243-42.25-42.291-2.333-2.334-4.451-4.407-6.292-6.251v-89.165c0-19.311-6.7-37.948-18.833-52.749l-5.542-6.084c-15.612-15.625-36.783-24.375-58.833-24.375-11.236 0.004-21.635 5.905-27.416 15.543l-72.709 121.165-121.125 72.666c-9.636 5.786-15.542 16.222-15.542 27.46 0.005 45.926 37.238 83.162 83.167 83.166h89.167c1.845 1.847 3.949 3.951 6.292 6.293 10.046 10.044 24.551 24.508 42.292 42.249 24.937 24.939 56.274 56.358 90.833 90.918l-294.917 158.79c-7.929 4.272-13.696 11.678-15.875 20.417-2.18 8.742-0.581 18.004 4.417 25.5 38.193 57.283 107.973 84.81 175 69.041 63.711-14.995 150.048-35.307 220.457-51.875 35.2-8.282 66.415-15.641 88.836-20.916 7.185-1.691 13.487-3.147 18.705-4.375 52.855 52.853 99.917 99.874 130.419 130.375 29.18 29.18 68.74 45.583 109.999 45.583 45.931 0 83.209-37.266 83.209-83.209z" />
<glyph unicode="&#xe920;" glyph-name="calendar-2" d="M859.166 685.021c0 34.69-28.1 62.831-62.793 62.833h-568.873c-34.691 0-62.833-28.142-62.833-62.833v-568.874c0.002-34.692 28.143-62.793 62.833-62.793h568.873c34.688 0 62.793 28.105 62.793 62.793v568.874zM923.166 116.147c0-70.037-56.755-126.793-126.793-126.793h-568.873c-70.036 0-126.831 56.755-126.833 126.793v568.874c0 70.038 56.795 126.833 126.833 126.833h568.873c70.037-0.003 126.793-56.797 126.793-126.833v-568.874zM669.5 685.041v189.625c0 17.673 14.327 32 32 32s32-14.327 32-32v-189.625c0-17.673-14.327-32-32-32s-32 14.327-32 32zM290.333 685.041v189.625c0 17.673 14.327 32 32 32s32-14.327 32-32v-189.625c0-17.673-14.327-32-32-32s-32 14.327-32 32zM891.166 574.813c17.673 0 32-14.327 32-32 0-17.671-14.327-31.999-32-31.999h-758.499c-17.673 0-32 14.327-32 31.999s14.327 32 32 32h758.499zM464.457 408.892c17.677 0 32-14.327 32-32v-189.628c0-17.673-14.323-32-32-32h-189.623c-17.673 0-32 14.327-32 32v189.628c0 17.673 14.327 32 32 32h189.623zM306.833 219.264h125.623v125.628h-125.623v-125.628z" />
<glyph unicode="&#xe921;" glyph-name="double-bubble-chat" d="M923.14-8.337c9.365-8.525 22.878-10.735 34.458-5.628 11.593 5.124 19.085 16.623 19.085 29.295v256.998l-0.418 18.082c-4.672 89.719-50.317 169.57-118.413 219.959-14.204 10.509-34.236 7.526-44.753-6.669-10.509-14.199-7.531-34.236 6.669-44.749 56.9-42.099 93.645-110.387 92.915-186.001v-197.705c-39.59 16.192-85.218 15.599-125.291-4.42-26.615-13.291-56.478-21.333-88.461-23.125l-13.833-0.371c-75.891-0.038-142.31 35.23-184.124 91.123-10.586 14.144-30.643 17.037-44.791 6.46-14.148-10.586-17.037-30.643-6.46-44.791 53.717-71.804 139.004-116.83 235.375-116.791l17.459 0.499c40.461 2.27 78.835 12.48 113.417 29.747 33.643 16.806 74.786 9.95 101.794-16.956 0.337-0.337 0.687-0.678 1.041-1.003l4.331-3.955zM400.892 202.709c195.17-0.090 354.569 155.947 356.459 351.457 1.89 196.737-155.345 358.5-355 358.5-196.585 0-356.892-161.575-355-358.5v-319.5c0-12.681 7.482-24.175 19.084-29.291s25.139-2.884 34.5 5.666l5.375 4.915 1.041 0.96c35.737 35.738 90.157 44.911 134.792 22.541 47.875-23.991 101.815-36.77 158.75-36.749zM400.892 266.667c-47.231-0.021-91.33 10.577-130.083 29.999-51.221 25.668-110.072 24.521-159.459 0.499v257.627c-1.55 161.316 129.978 293.875 291 293.875 163.721 0 292.553-132.372 291-293.875-1.54-160.048-132.053-288.193-292.459-288.125zM603.981 555.703c0-27.029-21.909-48.939-48.939-48.939s-48.939 21.909-48.939 48.939c0 27.028 21.909 48.94 48.939 48.94s48.939-21.911 48.939-48.94zM449.331 555.703c0-27.029-21.909-48.939-48.939-48.939s-48.94 21.909-48.94 48.939c0 27.028 21.909 48.94 48.94 48.94s48.939-21.911 48.939-48.94zM294.683 555.703c0-27.029-21.909-48.939-48.94-48.939s-48.939 21.909-48.939 48.939c0 27.028 21.909 48.94 48.939 48.94s48.94-21.911 48.94-48.94z" />
<glyph unicode="&#xe922;" glyph-name="club-house1" d="M853.333 864c19.802 0 38.788-7.872 52.791-21.875s21.875-32.989 21.875-52.791v-640c0-64.802-52.531-117.333-117.333-117.333h-597.333c-64.801 0-117.333 52.531-117.333 117.333v178.001c0.003 31.113 12.374 60.958 34.375 82.957l188.334 188.334 2.417 2.208c8.83 7.203 20.587 8.89 30.875 5.25v183.25c0 19.803 7.872 38.789 21.875 52.791s32.989 21.875 52.791 21.875h426.667zM175.625 365.043c-9.999-10.001-15.622-23.569-15.625-37.709v-178.001c0-29.457 23.878-53.333 53.333-53.333h96v402.752l-133.708-133.709zM373.333 96h149.333v231.334c-0.004 14.14-5.628 27.708-15.625 37.709l-133.709 133.709v-402.752zM725.333 362.667c-23.565 0-42.667-19.102-42.667-42.667v-0.418c0-23.561 19.102-42.667 42.667-42.667s42.667 19.106 42.667 42.667v0.418c0 23.565-19.102 42.667-42.667 42.667zM725.333 533.333c-23.565 0-42.667-19.102-42.667-42.667v-0.418c0-23.561 19.102-42.667 42.667-42.667s42.667 19.106 42.667 42.667v0.418c0 23.565-19.102 42.667-42.667 42.667zM554.667 704c-23.565 0-42.667-19.103-42.667-42.667v-0.417c0-23.564 19.102-42.667 42.667-42.667s42.667 19.103 42.667 42.667v0.417c0 23.564-19.102 42.667-42.667 42.667zM725.333 704c-23.565 0-42.667-19.103-42.667-42.667v-0.417c0-23.564 19.102-42.667 42.667-42.667s42.667 19.103 42.667 42.667v0.417c0 23.564-19.102 42.667-42.667 42.667z" />
<glyph unicode="&#xe923;" glyph-name="trash-can" d="M805.666 629.25c17.634-1.175 30.967-16.409 29.794-34.042l-19.627-294.417c-3.716-55.74-6.626-100.685-13.623-135.834-7.181-36.036-19.401-66.146-44.625-89.749-25.242-23.633-56.124-33.847-92.587-38.626-35.554-4.655-80.623-4.582-136.499-4.582h-32.998c-55.876 0-100.945-0.073-136.501 4.582-36.462 4.779-67.345 14.993-92.583 38.626v0.043c-25.207 23.595-37.442 53.67-44.625 89.707-7.005 35.153-9.929 80.090-13.625 135.834l-19.625 294.417-0.084 3.291c0.571 16.201 13.35 29.649 29.875 30.75 16.533 1.101 30.961-10.548 33.667-26.542l0.375-3.25 19.625-294.417 2.75-39.957c2.655-36.894 5.298-65.024 9.792-87.582 5.090-25.545 11.962-40.585 21.417-51.251l4.208-4.335 4.583-3.917c11.275-8.73 26.742-14.575 52.584-17.958 30.438-3.985 70.55-4.041 128.167-4.041h32.998c57.617 0 97.728 0.055 128.166 4.041 29.525 3.866 45.504 10.953 57.169 21.875l4.207 4.335c9.446 10.658 16.29 25.673 21.376 51.209 5.99 30.097 8.747 70.131 12.582 127.625l19.627 294.374c1.173 17.633 16.405 30.966 34.039 29.792zM874.667 736c17.673 0 32-14.327 32-32s-14.327-32-32-32h-725.333c-17.673 0-32 14.327-32 32s14.327 32 32 32h725.333zM565.333 277.333v256c0 17.673 14.327 32 32 32s32-14.327 32-32v-256c0-17.673-14.327-32-32-32s-32 14.327-32 32zM394.667 277.333v256c0 17.673 14.327 32 32 32s32-14.327 32-32v-256c0-17.673-14.327-32-32-32s-32 14.327-32 32zM582.165 864.003c10.035 0 18.761 0.116 26.918-1.208l-0.043-0.042c14.771-2.365 28.779-8.133 40.917-16.875 12.156-8.754 22.118-20.219 29.043-33.5l0.038-0.083c3.767-7.262 6.396-15.343 9.626-25.042l4.126-12.416 0.166-0.459 0.124-0.458c3.379-11.223 10.372-21.018 19.878-27.875 9.51-6.857 21.026-10.383 32.747-10.042l1.92-64c-25.801-0.759-51.149 7.033-72.085 22.125-20.685 14.913-35.925 36.154-43.456 60.5l-4.126 12.375c-3.849 11.542-4.83 14.054-5.751 15.834v0.041c-2.304 4.389-5.602 8.185-9.626 11.084-4.049 2.917-8.738 4.838-13.666 5.625h-0.081c-1.826 0.296-4.348 0.416-16.67 0.416h-140.331c-12.322 0-14.844-0.12-16.668-0.416h-0.083c-4.929-0.788-9.617-2.708-13.667-5.625-4.028-2.902-7.361-6.688-9.667-11.084l0.041-0.041c-0.923-1.779-1.903-4.292-5.75-15.834l-4.125-12.291-1.417-4.417-0.125-0.416-0.166-0.417c-8.023-22.214-22.554-41.517-41.708-55.333s-42.057-21.522-65.667-22.125h-5.5v64h3.875c10.729 0.274 21.128 3.765 29.833 10.042 8.707 6.281 15.312 15.069 18.959 25.167l1.167 3.541 0.042 0.084 4.125 12.416c3.233 9.699 5.859 17.78 9.625 25.042l0.042 0.083c6.925 13.281 16.888 24.746 29.041 33.5 12.128 8.733 26.12 14.506 40.875 16.875 8.159 1.325 16.883 1.25 26.918 1.25h140.331z" />
<glyph unicode="&#xe924;" glyph-name="ticket-money" d="M837.956 756.211c-7.62 28.451-36.868 45.336-65.318 37.712l-659.405-176.687c-28.451-7.624-45.336-36.868-37.712-65.32l26.022-97.116c51.162-0.721 97.721-34.995 111.618-86.861s-9.304-104.785-53.244-130.995l26.033-97.156c7.623-28.45 36.868-45.338 65.32-37.713l659.407 176.687c28.45 7.625 45.333 36.868 37.709 65.318l-26.031 97.156c-51.157 0.73-97.711 34.961-111.607 86.822-13.897 51.867 9.289 104.829 53.231 131.036l-26.022 97.116zM932.907 649.137c4.574-17.071-5.555-34.618-22.626-39.192-28.454-7.624-45.338-36.869-37.713-65.32 7.625-28.453 36.868-45.336 65.318-37.711 17.071 4.574 34.62-5.559 39.194-22.63l33.126-123.635c16.772-62.596-20.373-126.933-82.965-143.706l-659.406-176.687c-62.594-16.772-126.932 20.373-143.703 82.97l-33.129 123.635c-4.574 17.071 5.556 34.62 22.627 39.194 28.451 7.625 45.336 36.868 37.712 65.318-7.623 28.454-36.868 45.338-65.32 37.713-17.071-4.574-34.618 5.555-39.192 22.626l-33.129 123.64c-16.772 62.593 20.374 126.932 82.967 143.703l659.406 176.687c62.592 16.772 126.929-20.374 143.701-82.967l33.131-123.639zM406.911 351.232c-4.574 17.071 5.556 34.615 22.627 39.189s34.62-5.555 39.194-22.626c5.308-19.802 23.646-29.124 38.967-25.015l68.945 18.47c11.021 2.953 19.742 15.804 15.723 30.831-3.298 12.309-6.933 15.454-7.974 16.239-1.412 1.058-4.617 2.722-13.918 3.473l-121.199 8.806c-14.327 1.131-31.86 4.352-47.492 16.090-16.014 12.028-25.712 29.636-31.388 50.816-12.461 46.507 13.205 96.446 60.969 109.253l68.983 18.484c52.262 14.001 103.637-19.244 117.321-70.322 4.565-17.065-5.559-34.618-22.626-39.192-17.062-4.561-34.611 5.572-39.194 22.626-5.303 19.805-23.616 29.171-38.938 25.069l-68.983-18.484c-11.017-2.962-19.738-15.843-15.714-30.866 3.302-12.309 6.963-15.407 8.004-16.192 1.421-1.062 4.646-2.726 14.089-3.469l-0.038-0.013 121.067-8.798c14.319-1.131 31.825-4.373 47.45-16.102 16.017-12.028 25.724-29.67 31.403-50.854 12.45-46.507-13.214-96.414-60.979-109.214l-68.945-18.47c-52.262-14.003-103.662 19.196-117.352 70.272zM525.291 274.897l-88.341 329.704c-4.574 17.071 5.555 34.618 22.626 39.192s34.62-5.556 39.194-22.627l88.341-329.701c4.574-17.071-5.555-34.62-22.626-39.194s-34.62 5.555-39.194 22.626z" />
<glyph unicode="&#xe93e;" glyph-name="bike" d="M352 320c0 76.582-62.083 138.667-138.667 138.667s-138.667-62.084-138.667-138.667c0-76.582 62.083-138.667 138.667-138.667s138.667 62.084 138.667 138.667zM416 320c0-111.927-90.737-202.667-202.667-202.667s-202.667 90.739-202.667 202.667c0 111.927 90.737 202.667 202.667 202.667s202.667-90.739 202.667-202.667zM789.333 800c17.673 0 32-14.327 32-32s-14.327-32-32-32h-68.207l-53.419-80.083c0.166-0.291 0.384-0.579 0.542-0.875l170.667-320.002c8.154-15.313 2.598-34.325-12.501-42.871-15.104-8.55-34.278-3.511-43.209 11.375l-182.665 304.457h-237.875c-17.673 0-32 14.327-32 32s14.327 32 32 32h238.874l42.667 64h-46.874c-17.673 0-32 14.327-32 32s14.327 32 32 32h192zM361.76 672.003c12.096 0.346 23.346-6.178 29.083-16.833l140.25-260.498h108.915c17.673 0 32-14.327 32-32 0-17.677-14.327-32-32-32h-128c-11.772 0-22.583 6.468-28.164 16.832l-119.126 221.25-122.375-262.291c-7.476-16.013-26.529-22.933-42.542-15.458-16.010 7.475-22.931 26.526-15.459 42.539l149.333 320.002 2.167 3.917c5.673 8.723 15.329 14.238 25.917 14.542zM213.333 800c54.295 0 95.954-27.362 124.708-58.167 28.517-30.554 46.682-66.755 55-91.709 5.589-16.766-3.484-34.911-20.25-40.5s-34.911 3.484-40.5 20.25c-5.904 17.711-19.744 45.513-41 68.291-21.023 22.525-46.925 37.833-77.958 37.833-17.673 0-32 14.327-32 32s14.327 32 32 32zM949.333 320c0 76.582-62.084 138.667-138.667 138.667s-138.667-62.084-138.667-138.667c0-76.582 62.084-138.667 138.667-138.667s138.667 62.084 138.667 138.667zM1013.333 320c0-111.927-90.739-202.667-202.667-202.667s-202.667 90.739-202.667 202.667c0 111.927 90.739 202.667 202.667 202.667s202.667-90.739 202.667-202.667z" />
<glyph unicode="&#xe93f;" glyph-name="book" d="M480 681.292c-90.147 92.176-191.017 124.655-320 117.708v-610.665c118.657-0.533 224.668-26.97 320-97.792v590.749zM864 799c-128.981 6.947-229.854-25.533-320-117.708v-590.749c95.334 70.822 201.344 97.259 320 97.792v610.665zM811.874 360.623c17.66-0.674 31.424-15.548 30.75-33.207-0.683-17.647-15.518-31.415-33.165-30.75-75.742 2.893-135.266-15.74-188.378-74.5-11.849-13.107-32.094-14.135-45.205-2.291-13.111 11.849-14.14 32.098-2.291 45.21 68.22 75.477 147.524 99.004 238.289 95.539zM811.874 479.667c17.66-0.674 31.424-15.548 30.75-33.207-0.683-17.651-15.518-31.42-33.165-30.75-75.964 2.901-148.339-23.625-191.458-60.045l-2.624-1.958c-13.38-9.152-31.77-6.891-42.462 5.751-11.401 13.5-9.707 33.719 3.793 45.124l10.918 8.708c56.435 42.586 139.362 69.615 224.247 66.377zM266.667 581.208c40.039-6.522 76.684-25.634 106.667-49.876v91.251c-34.22 30.638-65.386 45.637-106.667 48.75v-90.125zM437.333 522.752c0-29.052-21.847-46.272-39.375-52.668-17.587-6.413-42.756-6.857-62.167 9.374-25.071 20.962-54.29 35.439-83.542 39.211-24.919 3.204-49.583 23.912-49.583 54.665v109.958c0 27.809 22.211 53.266 52.958 52.666l12.375-0.541c60.955-3.825 106.899-27.087 152.417-69.041 11.097-10.231 16.916-24.471 16.916-38.833v-104.79zM928 177.958c-0.009-30.404-25.088-53.811-54.332-53.585-118.042 0.917-216.508-24.879-303.834-94.583-16.781-13.393-39.458-14.929-57.835-6.955-18.377-7.974-41.054-6.438-57.835 6.955-87.327 69.705-185.792 95.501-303.832 94.583-29.245-0.226-54.327 23.181-54.333 53.585v631.417c0 27.32 20.907 50.95 49.125 52.916 143.275 9.932 262.445-23.097 366.875-122.625 104.431 99.528 223.599 132.557 366.874 122.625 28.22-1.967 49.126-25.596 49.126-52.916v-631.417z" />
<glyph unicode="&#xe940;" glyph-name="bubble-chat-center" d="M874.667 746.667c0 29.455-23.876 53.333-53.333 53.333h-618.667c-29.455 0-53.333-23.878-53.333-53.333v-448c0-29.457 23.878-53.333 53.333-53.333h170.708c16.712 0 32.461-7.838 42.542-21.167l96.083-127.125 96.085 127.125 4.041 4.749c9.993 10.423 23.881 16.418 38.498 16.418h170.709c29.457 0 53.333 23.876 53.333 53.333v448zM938.667 298.667c0-64.802-52.531-117.333-117.333-117.333h-165.419l-101.372-134.127c-21.342-28.228-63.744-28.228-85.086 0l-101.374 134.127h-165.417c-64.801 0-117.333 52.531-117.333 117.333v448c0 64.801 52.532 117.333 117.333 117.333h618.667c64.802 0 117.333-52.532 117.333-117.333v-448zM623.791 608c17.673 0 32-14.327 32-32s-14.327-32-32-32h-348.791c-17.673 0-32 14.327-32 32s14.327 32 32 32h348.791zM469.291 462.938c17.673 0 32-14.327 32-32s-14.327-32-32-32h-194.291c-17.673 0-32 14.327-32 32s14.327 32 32 32h194.291z" />
<glyph unicode="&#xe941;" glyph-name="bubble-chat-check" d="M874.667 330.709v415.957c0 29.455-23.876 53.333-53.333 53.333h-618.667c-29.455 0-53.333-23.878-53.333-53.333v-415.957c0-29.457 23.878-53.333 53.333-53.333h10.667c29.452 0 53.329-23.885 53.333-53.333v-108.416l165.585 148.164c9.779 8.755 22.455 13.585 35.58 13.585h55.795v-64h-51.712l-180.332-161.417c-34.354-30.75-88.916-6.357-88.916 39.748v121.668c-64.801 0-117.333 52.531-117.333 117.333v415.957c0 64.801 52.532 117.333 117.333 117.333h618.667c64.802 0 117.333-52.532 117.333-117.333v-415.957c0-19.887-4.954-38.729-13.751-55.211l-56.499 30.17c3.968 7.433 6.251 15.923 6.251 25.041zM623.791 637.844c17.673 0 32-14.327 32-32s-14.327-32-32-32h-348.791c-17.673 0-32 14.327-32 32s14.327 32 32 32h348.791zM469.291 492.783c17.673 0 32-14.327 32-32 0-17.677-14.327-32-32-32h-194.291c-17.673 0-32 14.323-32 32 0 17.673 14.327 32 32 32h194.291zM874.709 240.282c-0.009 85.559-69.397 154.918-154.961 154.918-85.551-0.009-154.906-69.363-154.914-154.918 0-85.564 69.355-154.948 154.914-154.957 85.568 0 154.961 69.389 154.961 154.957zM938.709 240.282c0-120.913-98.048-218.957-218.961-218.957-120.905 0.009-218.914 98.048-218.914 218.957 0.009 120.9 98.014 218.91 218.914 218.918 120.909 0 218.953-98.014 218.961-218.918zM776.491 308.898c12.497 12.497 32.755 12.497 45.248 0 12.497-12.497 12.497-32.751 0-45.248l-103.206-103.211c-12.343-12.343-32.32-12.54-44.877-0.414l-44.25 42.79c-12.689 12.279-13.022 32.503-0.751 45.21 12.284 12.706 32.542 13.073 45.252 0.789l21.581-20.873 81.003 80.956z" />
<glyph unicode="&#xe942;" glyph-name="bubble-chat-circle-frame" d="M694.374 589.552c0 5.891-4.774 10.667-10.667 10.667h-343.541c-5.891 0-10.667-4.776-10.667-10.667v-250.834c0.009-5.884 4.781-10.667 10.667-10.667h90.835c15.586 0 30.276-6.788 40.333-18.415l3.998-5.252 36.582-54.75 36.625 54.75c9.894 14.801 26.534 23.663 44.335 23.667h90.833c5.884 0 10.658 4.783 10.667 10.667v250.834zM758.374 338.718c-0.009-41.229-33.434-74.667-74.667-74.667h-85.124l-42.291-63.292c-21.12-31.595-67.593-31.595-88.708 0l-42.292 63.292h-85.125c-41.232 0-74.657 33.438-74.667 74.667v250.834c0 41.237 33.429 74.667 74.667 74.667h343.541c41.237 0 74.667-33.429 74.667-74.667v-250.834zM874.667 448c0 200.295-162.372 362.667-362.667 362.667s-362.667-162.371-362.667-362.667c0-200.294 162.371-362.667 362.667-362.667s362.667 162.372 362.667 362.667zM938.667 448c0-235.639-191.027-426.667-426.667-426.667-235.642 0-426.667 191.027-426.667 426.667 0 235.642 191.025 426.667 426.667 426.667 235.639 0 426.667-191.025 426.667-426.667z" />
<glyph unicode="&#xe943;" glyph-name="bubble-chat-love-notification" d="M85.333 294.080v381.123c0 64.802 52.532 117.333 117.333 117.333h335.543v-64h-335.543c-29.455 0-53.333-23.878-53.333-53.333v-381.123c0.004-29.453 23.881-53.333 53.333-53.333h141.875c16.713 0 32.461-7.838 42.542-21.167l82.25-108.791 82.249 108.791 4.002 4.749c9.997 10.436 23.91 16.418 38.541 16.418h141.875c29.453 0 53.329 23.881 53.333 53.333v315.29h64v-315.29c-0.004-64.798-52.535-117.333-117.333-117.333h-136.585l-87.539-115.793c-21.342-28.233-63.744-28.233-85.086 0l-87.54 115.793h-136.583c-64.799 0-117.329 52.535-117.333 117.333zM439.377 566.021c17.673 0 32-14.327 32-32s-14.327-32-32-32h-181.21c-17.673 0-32 14.327-32 32s14.327 32 32 32h181.21zM359.125 436.642c17.665-0.013 32-14.336 32-32 0-17.668-14.335-31.991-32-32h-100.958c-17.673 0-32 14.327-32 32s14.327 32 32 32h100.958zM726.417 837.828c49.045 48.417 128.068 48.221 176.875-0.583 48.99-49 48.994-128.462 0-177.458l-145.459-145.418c-17.34-17.335-45.453-17.335-62.793 0l-145.459 145.418c-48.998 48.999-48.998 128.459 0 177.458 48.802 48.801 127.791 48.989 176.836 0.583zM858.001 791.995c-24.009 23.994-62.916 24.001-86.916 0l-20.292-20.292c-13.466-13.451-35.29-13.458-48.751 0l-20.292 20.292c-24.009 23.994-62.916 24.001-86.916 0s-23.996-62.91 0-86.917l131.584-131.584 131.584 131.584c24.004 24.006 24.004 62.911 0 86.917z" />
<glyph unicode="&#xe944;" glyph-name="bubble-chat-minus" d="M788.416 272.265c17.673 0 32-14.327 32-32s-14.327-32-32-32h-137.084c-17.673 0-32 14.327-32 32s14.327 32 32 32h137.084zM874.667 330.709v415.957c0 29.455-23.876 53.333-53.333 53.333h-618.667c-29.455 0-53.333-23.878-53.333-53.333v-415.957c0-29.457 23.878-53.333 53.333-53.333h10.667c29.452 0 53.329-23.885 53.333-53.333v-108.416l165.585 148.164c9.779 8.755 22.455 13.585 35.58 13.585h63.211v-64h-59.127l-180.332-161.417c-34.354-30.75-88.916-6.357-88.916 39.748v121.668c-64.801 0-117.333 52.531-117.333 117.333v415.957c0 64.801 52.532 117.333 117.333 117.333h618.667c64.802 0 117.333-52.532 117.333-117.333v-415.957c0-18.47-4.288-36.045-11.959-51.669l-28.706 14.127-28.753 14.084c3.456 7.040 5.419 14.976 5.419 23.458zM623.791 637.849c17.673 0 32-14.327 32-32s-14.327-32-32-32h-348.791c-17.673 0-32 14.327-32 32s14.327 32 32 32h348.791zM469.291 492.783c17.673 0 32-14.327 32-32 0-17.677-14.327-32-32-32h-194.291c-17.673 0-32 14.323-32 32 0 17.673 14.327 32 32 32h194.291zM874.709 240.282c-0.009 85.559-69.397 154.918-154.961 154.918-85.551-0.009-154.906-69.363-154.914-154.918 0-85.564 69.355-154.948 154.914-154.957 85.568 0 154.961 69.389 154.961 154.957zM938.709 240.282c0-120.913-98.048-218.957-218.961-218.957-120.905 0.009-218.914 98.048-218.914 218.957 0.009 120.9 98.014 218.91 218.914 218.918 120.909 0 218.953-98.014 218.961-218.918z" />
<glyph unicode="&#xe945;" glyph-name="bubble-chat-notification-center" d="M85.333 294.080v381.123c0 64.802 52.532 117.333 117.333 117.333h463.501v-64h-463.501c-29.455 0-53.333-23.878-53.333-53.333v-381.123c0.004-29.453 23.881-53.333 53.333-53.333h141.875c16.713 0 32.461-7.838 42.542-21.167l82.25-108.791 82.249 108.791 4.002 4.749c9.997 10.436 23.91 16.418 38.541 16.418h141.875c29.453 0 53.329 23.881 53.333 53.333v309.831h64v-309.831c-0.004-64.798-52.535-117.333-117.333-117.333h-136.585l-87.539-115.793c-21.342-28.233-63.744-28.233-85.086 0l-87.54 115.793h-136.583c-64.799 0-117.329 52.535-117.333 117.333zM569.084 564.213c17.673 0 32-14.327 32-31.998 0-17.677-14.327-32-32-32h-311.084c-17.673 0-32 14.323-32 32 0 17.671 14.327 31.998 32 31.998h311.084zM431.292 434.833c17.673-0.004 32-14.327 32-32s-14.327-31.996-32-32h-173.292c-17.673 0-32 14.327-32 32s14.327 32 32 32h173.292zM874.334 725.12c0 47.128-38.204 85.333-85.333 85.333s-85.333-38.205-85.333-85.333c0-47.128 38.204-85.333 85.333-85.333s85.333 38.205 85.333 85.333zM938.334 725.12c0-82.475-66.859-149.333-149.333-149.333s-149.333 66.859-149.333 149.333c0 82.474 66.859 149.333 149.333 149.333s149.333-66.859 149.333-149.333z" />
<glyph unicode="&#xe946;" glyph-name="bubble-chat-notification-left" d="M254 95.906l190.915 138.624c9.109 6.613 20.083 10.163 31.334 10.167h259.75c29.457 0 53.333 23.881 53.333 53.333v304h64v-304c0-64.802-52.531-117.333-117.333-117.333h-256.252l-205.082-148.915c-35.256-25.6-84.667-0.405-84.667 43.166v106.334c-58.72 5.568-104.663 54.946-104.666 115.123v354.167c0 64.802 52.532 117.333 117.333 117.333h470.874v-64h-470.874c-29.455 0-53.333-23.878-53.333-53.333v-354.167c0.003-28.557 23.152-51.703 51.708-51.708 29.227 0 52.949-23.693 52.958-52.915v-95.876zM526.793 574.026c17.673 0 32-14.327 32-32s-14.327-32.002-32-32.002h-268.792c-17.673 0-32 14.327-32 32.002 0 17.673 14.327 32 32 32h268.792zM407.708 444.646c17.673 0 32.002-14.327 32.002-32s-14.328-32-32.002-32h-149.708c-17.673 0-32 14.327-32 32s14.327 32 32 32h149.708zM877.167 725.12c0 47.128-38.204 85.333-85.333 85.333s-85.333-38.205-85.333-85.333c0-47.128 38.204-85.333 85.333-85.333s85.333 38.205 85.333 85.333zM941.167 725.12c0-82.475-66.859-149.333-149.333-149.333s-149.333 66.859-149.333 149.333c0 82.474 66.859 149.333 149.333 149.333s149.333-66.859 149.333-149.333z" />
<glyph unicode="&#xe947;" glyph-name="bubble-chat-plus" d="M874.667 330.709v415.957c0 29.455-23.876 53.333-53.333 53.333h-618.667c-29.455 0-53.333-23.878-53.333-53.333v-415.957c0-29.457 23.878-53.333 53.333-53.333h10.667c29.452 0 53.329-23.885 53.333-53.333v-108.416l165.585 148.164c9.779 8.755 22.455 13.585 35.58 13.585h56.836v-64h-52.753l-180.332-161.417c-34.354-30.75-88.916-6.357-88.916 39.748v121.668c-64.801 0-117.333 52.531-117.333 117.333v415.957c0 64.801 52.532 117.333 117.333 117.333h618.667c64.802 0 117.333-52.532 117.333-117.333v-415.957c0-24.158-7.347-46.72-19.917-65.417l-53.082 35.708c5.692 8.474 8.998 18.662 8.998 29.709zM623.791 637.844c17.673 0 32-14.327 32-32s-14.327-32-32-32h-348.791c-17.673 0-32 14.327-32 32s14.327 32 32 32h348.791zM469.291 492.783c17.673 0 32-14.327 32-32 0-17.677-14.327-32-32-32h-194.291c-17.673 0-32 14.323-32 32 0 17.673 14.327 32 32 32h194.291zM874.709 240.282c-0.009 85.559-69.397 154.918-154.961 154.918-85.551-0.009-154.906-69.363-154.914-154.918 0-85.564 69.355-154.948 154.914-154.957 85.568 0 154.961 69.389 154.961 154.957zM938.709 240.282c0-120.913-98.048-218.957-218.961-218.957-120.905 0.009-218.914 98.048-218.914 218.957 0.009 120.9 98.014 218.91 218.914 218.918 120.909 0 218.953-98.014 218.961-218.918zM788.416 272.265c17.673 0 32-14.327 32-32s-14.327-32-32-32h-137.084c-17.673 0-32 14.327-32 32s14.327 32 32 32h137.084zM687.834 171.725v137.084c0 17.673 14.327 32 32 32s32-14.327 32-32v-137.084c0-17.673-14.327-32-32-32s-32 14.327-32 32z" />
<glyph unicode="&#xe948;" glyph-name="bubble-chat-square-frame" d="M694.374 589.552c0 5.891-4.774 10.667-10.667 10.667h-343.541c-5.891 0-10.667-4.776-10.667-10.667v-250.834c0.009-5.884 4.781-10.667 10.667-10.667h90.835c15.586 0 30.276-6.788 40.333-18.415l3.998-5.252 36.582-54.75 36.625 54.75c9.894 14.801 26.534 23.663 44.335 23.667h90.833c5.884 0 10.658 4.783 10.667 10.667v250.834zM758.374 338.718c-0.009-41.229-33.434-74.667-74.667-74.667h-85.124l-42.291-63.292c-21.12-31.595-67.593-31.595-88.708 0l-42.292 63.292h-85.125c-41.232 0-74.657 33.438-74.667 74.667v250.834c0 41.237 33.429 74.667 74.667 74.667h343.541c41.237 0 74.667-33.429 74.667-74.667v-250.834zM874.667 757.333c0 29.455-23.876 53.333-53.333 53.333h-618.667c-29.455 0-53.333-23.878-53.333-53.333v-618.667c0-29.457 23.878-53.333 53.333-53.333h618.667c29.457 0 53.333 23.876 53.333 53.333v618.667zM938.667 138.667c0-64.802-52.531-117.333-117.333-117.333h-618.667c-64.801 0-117.333 52.531-117.333 117.333v618.667c0 64.801 52.532 117.333 117.333 117.333h618.667c64.802 0 117.333-52.532 117.333-117.333v-618.667z" />
<glyph unicode="&#xe949;" glyph-name="bubble-chat-x" d="M874.667 330.709v415.957c0 29.455-23.876 53.333-53.333 53.333h-618.667c-29.455 0-53.333-23.878-53.333-53.333v-415.957c0-29.457 23.878-53.333 53.333-53.333h10.667c29.452 0 53.329-23.885 53.333-53.333v-108.416l165.585 148.164c9.779 8.755 22.455 13.585 35.58 13.585h59.959v-64h-55.876l-180.332-161.417c-34.354-30.75-88.916-6.357-88.916 39.748v121.668c-64.801 0-117.333 52.531-117.333 117.333v415.957c0 64.801 52.532 117.333 117.333 117.333h618.667c64.802 0 117.333-52.532 117.333-117.333v-415.957c0-22.647-6.451-43.895-17.626-61.875l-54.374 33.792c5.056 8.137 8 17.715 8 28.083zM623.791 637.844c17.673 0 32-14.327 32-32s-14.327-32-32-32h-348.791c-17.673 0-32 14.327-32 32s14.327 32 32 32h348.791zM469.291 492.783c17.673 0 32-14.327 32-32 0-17.677-14.327-32-32-32h-194.291c-17.673 0-32 14.323-32 32 0 17.673 14.327 32 32 32h194.291zM874.709 240.282c-0.009 85.559-69.397 154.918-154.961 154.918-85.551-0.009-154.906-69.363-154.914-154.918 0-85.564 69.355-154.948 154.914-154.957 85.568 0 154.961 69.389 154.961 154.957zM938.709 240.282c0-120.913-98.048-218.957-218.961-218.957-120.905 0.009-218.914 98.048-218.914 218.957 0.009 120.9 98.014 218.91 218.914 218.918 120.909 0 218.953-98.014 218.961-218.918zM640.875 313.54c12.493 12.497 32.751 12.497 45.248 0l112.499-112.503c12.489-12.497 12.493-32.755 0-45.248s-32.751-12.489-45.248 0l-112.499 112.499c-12.497 12.497-12.497 32.755 0 45.252zM753.37 313.536c12.497 12.493 32.755 12.497 45.252 0 12.489-12.497 12.489-32.755 0-45.252l-112.503-112.499c-12.493-12.489-32.751-12.489-45.248 0-12.497 12.497-12.493 32.755 0 45.252l112.499 112.499z" />
<glyph unicode="&#xe94a;" glyph-name="bubble-chat0" d="M266.667 106.752l220.915 160.457c9.109 6.609 20.083 10.163 31.334 10.167h302.417c29.457 0 53.333 23.876 53.333 53.333v415.957c0 29.455-23.876 53.333-53.333 53.333h-618.667c-29.455 0-53.333-23.878-53.333-53.333v-415.957c0-29.457 23.878-53.333 53.333-53.333h10.667c29.452 0 53.329-23.885 53.333-53.333v-117.291zM938.667 330.709c0-64.802-52.531-117.333-117.333-117.333h-298.918l-235.081-170.709c-35.254-25.587-84.662-0.397-84.667 43.166v127.543c-64.801 0-117.333 52.531-117.333 117.333v415.957c0 64.801 52.532 117.333 117.333 117.333h618.667c64.802 0 117.333-52.532 117.333-117.333v-415.957zM623.791 637.844c17.673 0 32-14.327 32-32s-14.327-32-32-32h-348.791c-17.673 0-32 14.327-32 32s14.327 32 32 32h348.791zM469.291 492.783c17.673 0 32-14.327 32-32 0-17.677-14.327-32-32-32h-194.291c-17.673 0-32 14.323-32 32 0 17.673 14.327 32 32 32h194.291z" />
<glyph unicode="&#xe94f;" glyph-name="bug" d="M736 576c0 29.455-23.876 53.333-53.333 53.333h-341.333c-29.455 0-53.333-23.878-53.333-53.333v-256c0-123.712 100.288-224 224-224s224 100.288 224 224v256zM800 320c0-159.057-128.943-288-288-288s-288 128.943-288 288v256c0 64.801 52.532 117.333 117.333 117.333h341.333c64.802 0 117.333-52.532 117.333-117.333v-256zM480 277.333v384c0 17.673 14.327 32 32 32s32-14.327 32-32v-384c0-17.673-14.327-32-32-32s-32 14.327-32 32zM853.333 480c17.673 0 32-14.327 32-32s-14.327-32-32-32h-85.333c-17.673 0-32 14.327-32 32s14.327 32 32 32h85.333zM256 480c17.673 0 32-14.327 32-32s-14.327-32-32-32h-85.333c-17.673 0-32 14.327-32 32s14.327 32 32 32h85.333zM404.039 854.627c12.497 12.497 32.752 12.497 45.249 0l42.667-42.667c12.497-12.497 12.497-32.753 0-45.25s-32.751-12.497-45.248 0l-42.668 42.667c-12.497 12.497-12.497 32.753 0 45.25zM574.707 854.627c12.497 12.497 32.751 12.497 45.248 0s12.497-32.753 0-45.25l-42.667-42.667c-12.497-12.497-32.751-12.497-45.248 0s-12.497 32.753 0 45.25l42.667 42.667zM856.823 735.791c16.457-1.815 28.625-15.793 28.501-32l-0.209-3.292v-0.125c-0.004-0.047-0.034-0.101-0.043-0.167-0.017-0.147-0.013-0.349-0.043-0.583-0.055-0.478-0.141-1.146-0.247-1.958-0.218-1.638-0.546-3.945-1.003-6.75-0.9-5.585-2.338-13.332-4.454-22.125-4.049-16.815-11.358-40.629-24.418-59.958-12.885-19.060-31.642-34.378-45.333-44.208-7.147-5.131-13.598-9.238-18.291-12.084-2.355-1.426-4.271-2.582-5.666-3.375-0.7-0.397-1.293-0.687-1.711-0.916-0.201-0.112-0.371-0.221-0.499-0.292-0.060-0.034-0.124-0.060-0.166-0.083l-0.043-0.042h-0.043c-15.556-8.364-34.957-2.552-43.332 13-8.363 15.56-2.551 34.96 13.001 43.334h-0.043c0.026 0.013 0.115 0.031 0.209 0.083 0.196 0.108 0.542 0.322 1.003 0.583 0.922 0.524 2.338 1.335 4.122 2.417 3.605 2.185 8.602 5.408 14.127 9.375 11.661 8.369 23.147 18.393 29.666 28.041 6.562 9.709 11.708 24.542 15.206 39.084 1.66 6.883 2.756 13.018 3.46 17.375 0.35 2.156 0.602 3.849 0.751 4.958 0.073 0.555 0.137 0.969 0.166 1.208v0.25c1.95 17.542 17.779 30.176 35.332 28.25zM167.152 735.791c17.564 1.928 33.359-10.73 35.292-28.292v0.042c0.004-0.034 0.027-0.131 0.042-0.25 0.029-0.239 0.093-0.654 0.166-1.208 0.148-1.109 0.361-2.806 0.708-4.958 0.704-4.357 1.843-10.492 3.5-17.375 3.502-14.541 8.648-29.375 15.208-39.083 6.516-9.643 17.973-19.676 29.625-28.042 5.53-3.97 10.563-7.19 14.167-9.375 1.786-1.083 3.203-1.892 4.125-2.417 0.46-0.262 0.805-0.475 1-0.583 0.079-0.044 0.137-0.067 0.166-0.083h-0.041c15.566-8.368 21.41-27.767 13.041-43.334-7.851-14.585-25.39-20.618-40.375-14.417l-2.959 1.417h-0.041l-0.042 0.042c-0.042 0.023-0.107 0.051-0.167 0.083-0.131 0.072-0.334 0.177-0.541 0.292-0.413 0.228-0.978 0.526-1.667 0.916-1.394 0.793-3.315 1.949-5.667 3.375-4.691 2.845-11.146 6.954-18.292 12.083-13.693 9.83-32.45 25.15-45.333 44.208-13.060 19.329-20.368 43.144-24.416 59.959-2.117 8.793-3.557 16.539-4.458 22.125-0.453 2.805-0.782 5.111-1 6.75-0.108 0.812-0.192 1.48-0.25 1.958-0.028 0.235-0.067 0.436-0.083 0.583v0.292c-1.928 17.564 10.729 33.359 28.291 35.292zM749.321 251.379c-14.327 10.3-17.613 30.229-7.334 44.582 10.295 14.362 30.263 17.664 44.625 7.373l-9.455-13.205 9.498 13.205 0.085-0.081c0.043-0.034 0.102-0.081 0.166-0.128 0.132-0.094 0.333-0.222 0.542-0.371 0.414-0.307 0.973-0.73 1.664-1.25 1.404-1.062 3.354-2.556 5.709-4.459 4.698-3.802 11.11-9.289 18.21-16.085 13.845-13.252 31.872-33.071 43.917-56.832 11.985-23.65 18.842-53.167 22.75-74.79 2.018-11.191 3.392-21.073 4.25-28.169 0.431-3.558 0.755-6.468 0.956-8.499 0.102-1.007 0.158-1.809 0.209-2.377 0.026-0.277 0.068-0.499 0.085-0.666v-0.333c1.451-17.613-11.639-33.045-29.252-34.5-17.613-1.451-33.092 11.635-34.539 29.248v0.043c-0.009 0.077-0.026 0.226-0.043 0.418-0.034 0.388-0.085 1.015-0.166 1.83-0.162 1.634-0.422 4.066-0.794 7.125-0.747 6.165-1.911 14.793-3.665 24.503-3.644 20.173-9.246 42.142-16.875 57.207-7.36 14.519-19.575 28.57-31.083 39.582-5.572 5.329-10.615 9.596-14.208 12.501-1.792 1.446-3.213 2.556-4.126 3.247-0.439 0.337-0.768 0.567-0.96 0.708-0.051 0.043-0.094 0.102-0.124 0.128h-0.043l-0.043 0.043h0.043zM237.318 303.334c14.365 10.295 34.371 6.989 44.667-7.377 10.276-14.349 6.99-34.283-7.334-44.582-0.023-0.017-0.071-0.098-0.166-0.166-0.192-0.145-0.55-0.367-1-0.708-0.915-0.695-2.301-1.809-4.084-3.251-3.593-2.906-8.64-7.172-14.208-12.501-11.507-11.012-23.725-25.062-31.084-39.582-7.631-15.066-13.231-37.030-16.875-57.207-1.753-9.711-2.921-18.338-3.666-24.499-0.371-3.063-0.629-5.495-0.792-7.125-0.081-0.819-0.173-1.446-0.208-1.835-0.017-0.188 0.007-0.341 0-0.418l-0.042-0.038c-1.45-17.613-16.887-30.703-34.5-29.252s-30.7 16.887-29.25 34.5v0.333c0.015 0.166 0.058 0.393 0.083 0.666 0.052 0.572 0.108 1.37 0.209 2.377 0.203 2.031 0.527 4.941 0.958 8.499 0.859 7.095 2.229 16.977 4.25 28.169 3.906 21.628 10.766 51.14 22.75 74.79 12.040 23.753 30.029 43.58 43.875 56.832 7.103 6.801 13.551 12.284 18.25 16.085 2.352 1.903 4.307 3.396 5.708 4.459 0.691 0.525 1.251 0.943 1.667 1.25 0.209 0.154 0.408 0.277 0.541 0.375 0.066 0.047 0.12 0.090 0.167 0.124l0.083 0.085zM565.333 661.333v42.667c0 29.455-23.876 53.333-53.333 53.333s-53.333-23.878-53.333-53.333v-42.667c0-17.673-14.327-32-32-32s-32 14.327-32 32v42.667c0 64.801 52.531 117.333 117.333 117.333s117.333-52.532 117.333-117.333v-42.667c0-17.673-14.327-32-32-32s-32 14.327-32 32z" />
<glyph unicode="&#xe950;" glyph-name="burger-three" d="M896 693.333c17.673 0 32-14.327 32-32s-14.327-32-32-32h-768c-17.673 0-32 14.327-32 32s14.327 32 32 32h768zM896 480c17.673 0 32-14.327 32-32s-14.327-32-32-32h-768c-17.673 0-32 14.327-32 32s14.327 32 32 32h768zM896 266.667c17.673 0 32-14.327 32-32s-14.327-32-32-32h-768c-17.673 0-32 14.327-32 32s14.327 32 32 32h768z" />
<glyph unicode="&#xe951;" glyph-name="burger-two" d="M896 693.333c17.673 0 32-14.327 32-32s-14.327-32-32-32h-768c-17.673 0-32 14.327-32 32s14.327 32 32 32h768zM896 266.667c17.673 0 32-14.327 32-32s-14.327-32-32-32h-768c-17.673 0-32 14.327-32 32s14.327 32 32 32h768z" />
<glyph unicode="&#xe952;" glyph-name="bus" d="M277.333 149.333c35.346 0 64 28.655 64 64s-28.654 64-64 64c-35.346 0-64-28.655-64-64s28.654-64 64-64zM309.333 213.333c0 17.673-14.327 32-32 32s-32-14.327-32-32c0-17.673 14.327-32 32-32s32 14.327 32 32zM373.333 213.333c0-53.018-42.981-96-96-96s-96 42.982-96 96c0 53.018 42.981 96 96 96s96-42.982 96-96zM746.667 149.333c35.345 0 64 28.655 64 64s-28.655 64-64 64c-35.345 0-64-28.655-64-64s28.655-64 64-64zM778.667 213.333c0 17.673-14.327 32-32 32s-32-14.327-32-32c0-17.673 14.327-32 32-32s32 14.327 32 32zM842.667 213.333c0-53.018-42.982-96-96-96s-96 42.982-96 96c0 53.018 42.982 96 96 96s96-42.982 96-96zM53.333 704c0 19.803 7.872 38.789 21.875 52.791s32.989 21.875 52.791 21.875h597.333c69.201 0 132.331-38.516 176.875-100.875 44.45-62.228 68.459-144.953 68.459-229.792v-213.333c0-17.673-14.327-32-32-32h-853.333c-17.673 0-32 14.327-32 32v469.333zM117.333 266.667h789.333v181.333c0 73.583-20.975 142.79-56.542 192.583-35.469 49.655-80.841 74.083-124.791 74.083h-597.333c-2.829 0-5.541-1.125-7.542-3.125s-3.125-4.713-3.125-7.542v-437.333zM675.981 777.96c16.201 3.471 32.183-5.982 37.167-21.417l0.836-3.166 58.581-273.377h166.127c17.673 0 32-14.323 32-32 0-17.673-14.327-32-32-32h-192c-15.091 0-28.13 10.539-31.292 25.293l-64 298.667-0.542 3.25c-1.771 16.115 8.93 31.279 25.122 34.75zM725.333 565.333c17.673 0 32-14.327 32-32s-14.327-32-32-32h-640c-17.673 0-32 14.327-32 32s14.327 32 32 32h640zM266.667 533.333v213.333c0 17.673 14.327 32 32 32s32-14.327 32-32v-213.333c0-17.673-14.327-32-32-32s-32 14.327-32 32zM480 533.333v213.333c0 17.673 14.327 32 32 32s32-14.327 32-32v-213.333c0-17.673-14.327-32-32-32s-32 14.327-32 32z" />
<glyph unicode="&#xe953;" glyph-name="calendar-leave" d="M854.665 323.665c13.803 11.042 33.963 8.802 45.001-4.996l85.333-106.667c9.353-11.691 9.353-28.314 0-40.004l-85.333-106.667c-11.038-13.798-31.198-16.038-45.001-4.996-13.798 11.038-16.038 31.198-4.996 45.001l43.75 54.665h-232.085c-17.673 0-32 14.327-32 32s14.327 32 32 32h232.085l-43.75 54.665c-11.042 13.803-8.802 33.963 4.996 45.001zM821.333 405.333v256c0 29.455-23.876 53.333-53.333 53.333h-512c-29.455 0-53.333-23.878-53.333-53.333v-512c0-29.457 23.878-53.333 53.333-53.333h298.667c17.673 0 32-14.327 32-32s-14.327-32-32-32h-298.667c-64.801 0-117.333 52.531-117.333 117.333v512c0 64.801 52.532 117.333 117.333 117.333h512c64.802 0 117.333-52.532 117.333-117.333v-256c0-17.673-14.327-32-32-32s-32 14.327-32 32zM650.667 661.333v170.667c0 17.673 14.327 32 32 32s32-14.327 32-32v-170.667c0-17.673-14.327-32-32-32s-32 14.327-32 32zM309.333 661.333v170.667c0 17.673 14.327 32 32 32s32-14.327 32-32v-170.667c0-17.673-14.327-32-32-32s-32 14.327-32 32zM853.333 565.333c17.673 0 32-14.327 32-32s-14.327-32-32-32h-682.667c-17.673 0-32 14.327-32 32s14.327 32 32 32h682.667z" />
<glyph unicode="&#xe954;" glyph-name="calendar-1" d="M853.751 716.052c0 17.67-14.332 31.996-32 32h-619.585c-17.673 0-32-14.327-32-32v-598.71c0-17.673 14.327-32 32-32h619.585c17.668 0.004 32 14.332 32 32v598.71zM917.751 117.342c0-53.013-42.987-95.996-96-96h-619.585c-53.019 0-96 42.982-96 96v598.71c0 53.019 42.981 96 96 96h619.585c53.013-0.004 96-42.983 96-96v-598.71zM266.5 738v104.666c0 17.673 14.327 32 32 32s32-14.327 32-32v-104.666c-0.004-17.67-14.33-32-32-32s-31.995 14.33-32 32zM693.333 738v104.666c0 17.673 14.327 32 32 32s32-14.327 32-32v-104.666c-0.004-17.67-14.332-32-32-32s-31.996 14.33-32 32zM885.709 661.13v-64h-746.376v64h746.376zM351.833 223.838c17.672 0 31.997-14.327 32-32 0-17.673-14.327-32-32-32h-64c-17.673 0-32 14.327-32 32 0.003 17.673 14.329 32 32 32h64zM543.915 223.838c17.673 0 32-14.327 32-32s-14.323-32-32-32h-64c-17.673 0-32 14.327-32 32 0.004 17.673 14.332 32 32 32h64zM736 223.838c17.673 0 31.996-14.327 32-32 0-17.673-14.327-32-32-32h-64c-17.673 0-32 14.327-32 32 0.004 17.673 14.327 32 32 32h64zM351.833 373.214l3.292-0.166c16.126-1.651 28.708-15.275 28.708-31.834-0.009-16.555-12.587-30.187-28.708-31.834l-3.292-0.166h-64c-17.667 0-31.99 14.336-32 32 0 17.673 14.327 32 32 32h64zM543.915 373.214l3.294-0.166c16.124-1.651 28.706-15.275 28.706-31.834-0.009-16.555-12.587-30.187-28.706-31.834l-3.294-0.166h-64c-17.664 0-31.987 14.336-32 32 0 17.673 14.327 32 32 32h64zM736 373.214l3.29-0.166c16.128-1.651 28.71-15.275 28.71-31.834-0.009-16.555-12.587-30.187-28.71-31.834l-3.29-0.166h-64c-17.668 0-31.991 14.336-32 32 0 17.673 14.327 32 32 32h64zM351.833 522.628c17.673 0 32-14.323 32-32 0-17.673-14.327-32-32-32h-64c-17.673 0-32 14.327-32 32 0 17.677 14.327 32 32 32h64zM543.915 522.628c17.677 0 32-14.323 32-32 0-17.673-14.323-32-32-32h-64c-17.673 0-32 14.327-32 32 0 17.677 14.327 32 32 32h64zM736 522.628c17.673 0 32-14.323 32-32 0-17.673-14.327-32-32-32h-64c-17.673 0.004-32 14.327-32 32 0 17.677 14.327 32 32 32h64z" />
<glyph unicode="&#xe955;" glyph-name="calendar0" d="M906.667 622.208l-789.333 0.291c0 47.084 7.462 87.253 31.625 111.417 25.125 25.117 72.814 37.621 117.417 37.625h0.292v-39.084c0-17.673 14.327-32 32-32s32 14.327 32 32v39.084h362.667v-39.084c0-17.673 14.327-32 32-32s32 14.327 32 32v39.084h0.29c44.604-0.004 92.292-12.508 117.419-37.625 24.162-24.164 31.625-64.334 31.625-111.417v-0.291zM315.542 379.831l3.25 0.166c16.143 1.63 28.746 15.262 28.75 31.834 0 16.576-12.605 30.204-28.75 31.834l-3.25 0.166h-34.959c-17.671 0-32-14.327-32-32 0.005-17.664 14.332-31.996 32-32h34.959zM529.459 379.831c17.668 0 31.996 14.332 32 32 0 17.677-14.327 32-32 32h-34.918c-17.673 0-32-14.323-32-32 0.004-17.668 14.332-32 32-32h34.918zM743.415 379.831l3.251 0.166c16.141 1.634 28.745 15.266 28.749 31.834 0 16.576-12.604 30.204-28.749 31.834l-3.251 0.166h-34.957c-17.673 0-32-14.327-32-32 0.004-17.668 14.332-31.996 32-32h34.957zM315.542 201.459c17.671 0 31.997 14.327 32 32 0 17.673-14.328 32-32 32h-34.959c-17.671-0.004-32-14.327-32-32 0.003-17.673 14.33-32 32-32h34.959zM529.459 201.459c17.673 0 31.996 14.327 32 32 0 17.673-14.327 32-32 32h-34.918c-17.673 0-32-14.327-32-32 0.004-17.673 14.327-32 32-32h34.918zM970.667 622.5c0 48.949-6.601 112.919-50.334 156.667-42.778 42.777-111.283 56.371-162.709 56.375h-0.29v39.125c0 17.673-14.327 32-32 32s-32-14.327-32-32v-39.125h-362.667v39.125c0 17.673-14.327 32-32 32s-32-14.327-32-32v-39.125h-0.292c-51.425-0.004-119.929-13.598-162.708-56.375-43.734-43.749-50.333-107.719-50.333-156.667v-420.123c0.001-25.323 1.839-54.643 8.666-82.833 6.796-28.053 19.062-57.271 41.667-79.876s51.822-34.871 79.875-41.668c28.19-6.827 57.513-8.666 82.833-8.666h423.417c54.016 0.004 105.809 21.474 144 59.665l77.21 77.21c38.191 38.195 59.661 89.984 59.665 144v352.292zM117.333 558.208h789.333v-256h-108.416c-77.581 0-140.459-62.878-140.459-140.459v-108.416h-391.417c-22.686 0-46.408 1.707-67.75 6.874-21.491 5.205-38.318 13.402-49.667 24.751s-19.544 28.177-24.75 49.668c-5.168 21.342-6.874 45.065-6.875 67.75v355.832zM721.792 161.749c0 42.236 34.223 76.459 76.459 76.459h104.666c-5.905-25.071-18.658-48.239-37.167-66.748l-77.21-77.21c-18.509-18.509-41.673-31.305-66.748-37.21v104.708z" />
<glyph unicode="&#xe956;" glyph-name="calendar1" d="M906.667 622.208l-789.333 0.291c0 47.084 7.462 87.253 31.625 111.417 25.125 25.117 72.814 37.621 117.417 37.625h0.292v-39.084c0-17.673 14.327-32 32-32s32 14.327 32 32v39.084h362.667v-39.084c0-17.673 14.327-32 32-32s32 14.327 32 32v39.084h0.29c44.604-0.004 92.292-12.508 117.419-37.625 24.162-24.164 31.625-64.334 31.625-111.417v-0.291zM315.542 379.831l3.25 0.166c16.143 1.63 28.746 15.262 28.75 31.834 0 16.576-12.605 30.204-28.75 31.834l-3.25 0.166h-34.959c-17.671 0-32-14.327-32-32 0.005-17.664 14.332-31.996 32-32h34.959zM529.459 379.831c17.668 0 31.996 14.332 32 32 0 17.677-14.327 32-32 32h-34.918c-17.673 0-32-14.323-32-32 0.004-17.668 14.332-32 32-32h34.918zM743.415 379.831l3.251 0.166c16.141 1.634 28.745 15.266 28.749 31.834 0 16.576-12.604 30.204-28.749 31.834l-3.251 0.166h-34.957c-17.673 0-32-14.327-32-32 0.004-17.668 14.332-31.996 32-32h34.957zM315.542 201.459c17.671 0 31.997 14.327 32 32 0 17.673-14.328 32-32 32h-34.959c-17.671-0.004-32-14.327-32-32 0.003-17.673 14.33-32 32-32h34.959zM529.459 201.459c17.673 0 31.996 14.327 32 32 0 17.673-14.327 32-32 32h-34.918c-17.673 0-32-14.327-32-32 0.004-17.673 14.327-32 32-32h34.918zM970.667 622.5c0 48.949-6.601 112.919-50.334 156.667-42.778 42.777-111.283 56.371-162.709 56.375h-0.29v39.125c0 17.673-14.327 32-32 32s-32-14.327-32-32v-39.125h-362.667v39.125c0 17.673-14.327 32-32 32s-32-14.327-32-32v-39.125h-0.292c-51.425-0.004-119.929-13.598-162.708-56.375-43.734-43.749-50.333-107.719-50.333-156.667v-420.123c0.001-25.323 1.839-54.643 8.666-82.833 6.796-28.053 19.062-57.271 41.667-79.876s51.822-34.871 79.875-41.668c28.19-6.827 57.513-8.666 82.833-8.666h423.417c54.016 0.004 105.809 21.474 144 59.665l77.21 77.21c38.191 38.195 59.661 89.984 59.665 144v352.292zM117.333 558.208h789.333v-256h-108.416c-77.581 0-140.459-62.878-140.459-140.459v-108.416h-391.417c-22.686 0-46.408 1.707-67.75 6.874-21.491 5.205-38.318 13.402-49.667 24.751s-19.544 28.177-24.75 49.668c-5.168 21.342-6.874 45.065-6.875 67.75v355.832zM721.792 161.749c0 42.236 34.223 76.459 76.459 76.459h104.666c-5.905-25.071-18.658-48.239-37.167-66.748l-77.21-77.21c-18.509-18.509-41.673-31.305-66.748-37.21v104.708zM689.668-10.667c54.020 0 105.843 21.47 144.038 59.665l77.21 77.21c38.187 38.195 59.622 89.993 59.627 144 0 17.673-14.327 32-32 32h-140.416c-77.577-0.009-140.459-62.882-140.459-140.459v-140.416c0-17.673 14.323-32 32-32zM721.668 161.749c0 42.231 34.227 76.45 76.459 76.459h104.666c-5.905-25.067-18.658-48.239-37.167-66.748l-77.21-77.21c-18.509-18.513-41.673-31.305-66.748-37.21v104.708zM938.667 590.219h-853.333v32.271c0 48.020 7.023 100.098 40.979 134.056 33.956 33.955 92.063 47.006 140.083 47.006h491.211c48.017 0 106.125-13.052 140.079-47.006 33.958-33.958 40.981-86.036 40.981-134.056v-32.271zM906.667 622.219l-789.333 0.292c0.002 47.078 7.465 87.255 31.625 111.417 25.127 25.112 72.819 37.621 117.417 37.625h491.249c44.599-0.004 92.292-12.512 117.419-37.625 24.158-24.162 31.625-64.34 31.625-111.417v-0.292zM970.667 622.511c0 48.949-6.601 112.922-50.334 156.666-42.778 42.778-111.283 56.372-162.709 56.375h-491.249c-51.425-0.003-119.929-13.597-162.708-56.375-43.736-43.744-50.332-107.718-50.333-156.666v-32.292c0-17.673 14.327-32 32-32h853.333c17.673 0 32 14.327 32 32v32.292zM266.667 874.656v-142.208c0-17.673 14.327-32 32-32s32 14.327 32 32v142.208c0 17.673-14.327 32-32 32s-32-14.327-32-32zM693.333 874.656v-142.208c0-17.673 14.327-32 32-32s32 14.327 32 32v142.208c0 17.673-14.327 32-32 32s-32-14.327-32-32z" />
<glyph unicode="&#xe957;" glyph-name="camera-minus" d="M96 170.645v426.667c0 41.237 33.429 74.667 74.667 74.667h508.668c17.673 0 32-14.327 32-32s-14.327-32-32-32h-508.668c-5.891 0-10.667-4.776-10.667-10.667v-426.667c0-5.892 4.776-10.667 10.667-10.667h639.876c5.888 0 10.667 4.774 10.667 10.667v147.042c0 17.673 14.327 32 32 32s31.996-14.327 32-32v-147.042c0-41.237-33.429-74.667-74.667-74.667h-639.876c-41.237 0-74.667 33.429-74.667 74.667zM605.158 799.979c28.659 0 55.074-15.533 69.001-40.583l54.165-97.542c13.427-24.173-4.058-53.875-31.71-53.875h-412.124c-27.653 0-45.137 29.702-31.708 53.875l54.167 97.542c13.923 25.051 40.339 40.583 69 40.583h229.21zM375.949 735.979c-5.417 0-10.406-2.936-13.042-7.667l-31.292-56.333h317.874l-31.292 56.333c-2.637 4.731-7.625 7.667-13.039 7.667h-229.21zM586.667 383.979c0 53.022-42.982 96-96 96s-96-42.978-96-96c0-53.018 42.982-96 96-96s96 42.982 96 96zM650.667 383.979c0-88.367-71.633-160-160-160s-160 71.633-160 160 71.634 160 160 160c88.367 0 160-71.633 160-160zM290.667 543.979c17.673 0 32-14.328 32-32s-14.327-32-32-32h-64c-17.673 0-32 14.327-32 32s14.327 32 32 32h64zM896 543.979c17.673 0 32-14.328 32-32s-14.327-32-32-32h-170.667c-17.673 0-32 14.327-32 32s14.327 32 32 32h170.667z" />
<glyph unicode="&#xe958;" glyph-name="camera-plus" d="M96 170.645v426.667c0 41.237 33.429 74.667 74.667 74.667h508.668c17.673 0 32-14.327 32-32s-14.327-32-32-32h-508.668c-5.891 0-10.667-4.776-10.667-10.667v-426.667c0-5.892 4.776-10.667 10.667-10.667h639.876c5.888 0 10.667 4.774 10.667 10.667v147.042c0 17.673 14.327 32 32 32s31.996-14.327 32-32v-147.042c0-41.237-33.429-74.667-74.667-74.667h-639.876c-41.237 0-74.667 33.429-74.667 74.667zM605.158 799.979c28.659 0 55.074-15.533 69.001-40.583l54.165-97.542c13.427-24.173-4.058-53.875-31.71-53.875h-412.124c-27.653 0-45.137 29.702-31.708 53.875l54.167 97.542c13.923 25.051 40.339 40.583 69 40.583h229.21zM375.949 735.979c-5.417 0-10.406-2.936-13.042-7.667l-31.292-56.333h317.874l-31.292 56.333c-2.637 4.731-7.625 7.667-13.039 7.667h-229.21zM586.667 383.979c0 53.022-42.982 96-96 96s-96-42.978-96-96c0-53.018 42.982-96 96-96s96 42.982 96 96zM650.667 383.979c0-88.367-71.633-160-160-160s-160 71.633-160 160 71.634 160 160 160c88.367 0 160-71.633 160-160zM290.667 543.979c17.673 0 32-14.328 32-32s-14.327-32-32-32h-64c-17.673 0-32 14.327-32 32s14.327 32 32 32h64zM896 543.979c17.673 0 32-14.328 32-32s-14.327-32-32-32h-170.667c-17.673 0-32 14.327-32 32s14.327 32 32 32h170.667zM778.667 426.645v170.667c0 17.673 14.327 32 32 32s32-14.327 32-32v-170.667c0-17.673-14.327-32-32-32s-32 14.327-32 32z" />
<glyph unicode="&#xe959;" glyph-name="camera" d="M842.543 597.312c0 5.891-4.779 10.667-10.667 10.667h-639.876c-5.891 0-10.667-4.776-10.667-10.667v-426.667c0-5.892 4.776-10.667 10.667-10.667h639.876c5.888 0 10.667 4.774 10.667 10.667v426.667zM906.543 170.645c0-41.237-33.429-74.667-74.667-74.667h-639.876c-41.237 0-74.667 33.429-74.667 74.667v426.667c0 41.237 33.429 74.667 74.667 74.667h639.876c41.237 0 74.667-33.429 74.667-74.667v-426.667zM626.492 799.979c28.659 0 55.074-15.533 69.001-40.583l54.165-97.542c13.427-24.173-4.058-53.875-31.71-53.875h-412.124c-27.653 0-45.137 29.702-31.708 53.875l54.167 97.542c13.923 25.051 40.339 40.583 69 40.583h229.21zM397.282 735.979c-5.417 0-10.406-2.936-13.042-7.667l-31.292-56.333h317.874l-31.292 56.333c-2.637 4.731-7.625 7.667-13.039 7.667h-229.21zM608 383.979c0 53.022-42.982 96-96 96s-96-42.978-96-96c0-53.018 42.982-96 96-96s96 42.982 96 96zM672 383.979c0-88.367-71.633-160-160-160s-160 71.633-160 160 71.634 160 160 160c88.367 0 160-71.633 160-160zM312 543.979c17.673 0 32-14.328 32-32s-14.327-32-32-32h-64c-17.673 0-32 14.327-32 32s14.327 32 32 32h64z" />
<glyph unicode="&#xe95a;" glyph-name="card-history" d="M821.333 666.25c0 29.455-23.876 53.333-53.333 53.333h-554.667c-29.455 0-53.333-23.878-53.333-53.333v-426.668c0-29.453 23.878-53.333 53.333-53.333h400.542c0 0.29-0.043 0.589-0.043 0.875 0.004 88.363 71.637 160 160 160 16.525 0 32.474-2.577 47.501-7.249v326.376zM885.333 305.084c-0.004-17.301-10.453-30.182-22.293-36.292-11.614-5.986-27.038-6.882-40.542 1.084-14.242 8.401-30.839 13.248-48.666 13.248-53.018 0-95.996-42.982-96-96 0-5.67 0.486-11.221 1.417-16.58 4.015-23.159-12.89-48.29-40.247-48.294h-425.668c-64.801 0-117.333 52.535-117.333 117.333v426.668c0 64.802 52.532 117.333 117.333 117.333h554.667c64.802 0 117.333-52.532 117.333-117.333v-361.166zM869.833 187.115c0 53.018-42.978 96-96 96-53.018 0-96-42.982-96-96 0-17.673-14.327-32-32-32s-32 14.327-32 32c0 88.367 71.637 160 160 160 88.367 0 160-71.633 160-160s-71.633-160-160-160c-17.673 0-32 14.327-32 32s14.327 32 32 32c53.022 0 96 42.982 96 96zM576.602 306.291c17.118 4.382 34.543-5.943 38.925-23.061l28.339-110.673 78.903 70.353c13.184 11.767 33.421 10.637 45.188-2.543 11.763-13.184 10.594-33.412-2.586-45.18l-112.883-100.791c-20.284-18.108-52.527-8.269-59.273 18.074l-39.68 154.893c-4.382 17.122 5.943 34.547 23.066 38.929zM853.333 612.916v-64h-725.333v64h725.333zM426.667 352c17.673 0 32-14.327 32-32s-14.327-32-32-32h-170.667c-17.673 0-32 14.327-32 32s14.327 32 32 32h170.667z" />
<glyph unicode="&#xe95b;" glyph-name="card" d="M864 661.333c0 29.455-23.876 53.333-53.333 53.333h-597.333c-29.455 0-53.333-23.878-53.333-53.333v-426.667c0-29.457 23.878-53.333 53.333-53.333h597.333c29.457 0 53.333 23.876 53.333 53.333v426.667zM928 234.667c0-64.802-52.531-117.333-117.333-117.333h-597.333c-64.801 0-117.333 52.531-117.333 117.333v426.667c0 64.801 52.532 117.333 117.333 117.333h597.333c64.802 0 117.333-52.532 117.333-117.333v-426.667zM896 608v-64h-768v64h768zM426.667 352c17.673 0 32-14.327 32-32s-14.327-32-32-32h-170.667c-17.673 0-32 14.327-32 32s14.327 32 32 32h170.667z" />
<glyph unicode="&#xe95c;" glyph-name="cards" d="M864 704c0 29.455-23.876 53.333-53.333 53.333h-469.333c-29.455 0-53.333-23.878-53.333-53.333v-53.333h394.667c64.802 0 117.333-52.532 117.333-117.333v-224h10.667c29.457 0 53.333 23.876 53.333 53.333v341.333zM928 362.667c0-64.802-52.531-117.333-117.333-117.333h-74.667v288c0 29.455-23.876 53.333-53.333 53.333h-458.667v117.333c0 64.801 52.532 117.333 117.333 117.333h469.333c64.802 0 117.333-52.532 117.333-117.333v-341.333zM736 533.333c0 29.455-23.876 53.333-53.333 53.333h-469.333c-29.455 0-53.333-23.878-53.333-53.333v-341.333c0-29.457 23.878-53.333 53.333-53.333h469.333c29.457 0 53.333 23.876 53.333 53.333v341.333zM800 192c0-64.802-52.531-117.333-117.333-117.333h-469.333c-64.801 0-117.333 52.531-117.333 117.333v341.333c0 64.801 52.532 117.333 117.333 117.333h469.333c64.802 0 117.333-52.532 117.333-117.333v-341.333zM768 480v-64h-640v64h640zM384 266.667c17.673 0 32-14.327 32-32s-14.327-32-32-32h-128c-17.673 0-32 14.327-32 32s14.327 32 32 32h128z" />
<glyph unicode="&#xe95d;" glyph-name="cart" d="M100.82 835.831c8.016 15.748 27.251 22.013 43 14l62.958-32.042c22.736-11.573 38-33.94 40.458-59.333l37.625-389.709 430.79-0.166c16.145-1.63 28.753-15.258 28.753-31.834-0.009-16.567-12.612-30.199-28.753-31.834l-3.247-0.166h-447.252c-18.981-14.639-21.762-43.157-4.417-61.124l6.292-6.498c1.507-1.562 3.581-2.453 5.75-2.462l583.627-0.166c16.141-1.634 28.749-15.262 28.749-31.834s-12.608-30.195-28.749-31.834l-3.251-0.166h-580.375c-19.532 0.009-38.225 7.949-51.792 22.003l-6.292 6.498c-43.121 44.659-37.623 114.982 7.417 153.169l-38.583 399.956c-0.351 3.619-2.514 6.802-5.75 8.458l-62.958 32.083c-15.748 8.016-22.013 27.251-14 43zM778.5 138.667c0 17.673-14.327 32-32 32s-32-14.327-32-32c0-17.673 14.327-32 32-32s32 14.327 32 32zM842.5 138.667c0-53.018-42.982-96-96-96s-96 42.982-96 96c0 53.018 42.982 96 96 96s96-42.982 96-96zM394.5 138.667c0 17.673-14.327 32-32 32s-32-14.327-32-32c0-17.673 14.327-32 32-32s32 14.327 32 32zM458.5 138.667c0-53.018-42.981-96-96-96s-96 42.982-96 96c0 53.018 42.981 96 96 96s96-42.982 96-96zM862.583 670.828c49.621-3.042 82.47-52.847 65.749-99.666l-67.332-188.54c-16.678-46.694-60.919-77.871-110.502-77.875h-523.915l-35.084 407.206 671.084-41.125zM285.333 368.747h465.165c22.532 0.004 42.628 14.153 50.21 35.375l67.332 188.582c2.389 6.688-2.287 13.772-9.374 14.208l-597.041 36.625 23.708-274.79z" />
<glyph unicode="&#xe95e;" glyph-name="chatbot" d="M787.29 577.26c0 10.16-8.252 18.417-18.415 18.417h-513.958c-10.161 0-18.417-8.255-18.417-18.417v-380.793c0.008-10.155 8.259-18.372 18.417-18.372h151.542c9.42 0 18.378-4.181 24.458-11.375l80.96-95.791 80.956 95.791 2.419 2.581c5.909 5.615 13.798 8.789 22.042 8.794h151.582c10.155 0 18.406 8.218 18.415 18.372v380.793zM851.29 196.467c-0.009-45.5-36.915-82.372-82.415-82.372h-136.708l-95.834-113.417c-6.080-7.198-15.036-11.337-24.457-11.337-9.412 0.004-18.342 4.147-24.418 11.337l-95.833 113.417h-136.708c-45.505 0-82.409 36.873-82.417 82.372v380.793c0 45.51 36.911 82.417 82.417 82.417h513.958c45.508 0 82.415-36.909 82.415-82.417v-380.793zM946.082 474.863c-0.009 5.897-4.813 10.667-10.705 10.667h-84.045v-170.914h84.045c5.897 0 10.701 4.766 10.705 10.667v149.581zM1010.082 325.282c-0.004-41.242-33.459-74.667-74.705-74.667h-116.045c-17.673 0-32 14.327-32 32v234.914c0 17.675 14.327 32.002 32 32.002h116.045c41.242 0 74.697-33.427 74.705-74.668v-149.581zM204.583 549.531c17.665-0.009 32-14.333 32-32.002v-234.914c0-17.668-14.335-31.991-32-32h-116.083c-41.239 0.009-74.663 33.429-74.667 74.667v149.581c0.010 41.233 33.434 74.658 74.667 74.668h116.083zM77.833 325.282c0.004-5.897 4.778-10.658 10.667-10.667h84.083v170.914h-84.083c-5.887-0.009-10.656-4.779-10.667-10.667v-149.581zM903.377 517.542c-0.013 179.563-145.604 325.124-325.167 325.124h-132.587c-179.557-0.009-325.115-145.566-325.123-325.124 0-17.673-14.327-32-32-32s-32 14.327-32 32c0.009 214.904 174.22 389.116 389.123 389.124h132.587c214.912 0 389.154-174.215 389.167-389.124 0-17.673-14.332-31.996-32-32-17.677 0-32 14.327-32 32zM422.69 463.053c0-16.026-12.989-29.013-29.012-29.013s-29.012 12.988-29.012 29.013c0 16.021 12.989 29.009 29.012 29.009s29.012-12.988 29.012-29.009zM647.023 463.053c0-16.026-12.988-29.013-29.013-29.013-16.021 0-29.009 12.988-29.009 29.013 0 16.021 12.988 29.009 29.009 29.009 16.026 0 29.013-12.988 29.013-29.009zM616.183 361.711c13.218 11.716 33.442 10.5 45.167-2.705 11.725-13.227 10.513-33.485-2.709-45.21-43.934-38.963-94.413-59.998-146.581-60.002-52.181 0-102.685 21.030-146.626 60.002-13.221 11.725-14.434 31.987-2.708 45.21 11.727 13.218 31.987 14.434 45.209 2.705 34.157-30.289 69.988-43.917 104.126-43.917 34.133 0.004 69.969 13.628 104.124 43.917z" />
<glyph unicode="&#xe964;" glyph-name="check" d="M787.789 683.751c12.369 12.623 32.67 12.828 45.291 0.459s12.826-32.669 0.457-45.292l-388.207-396.085c-28.926-29.504-76.326-29.926-105.75-0.913l-148.708 146.667-2.208 2.415c-10.348 12.493-9.752 31.031 1.875 42.833 12.407 12.582 32.666 12.736 45.25 0.333l148.75-146.667c4.202-4.134 10.953-4.079 15.084 0.124l388.168 396.127z" />
<glyph unicode="&#xe965;" glyph-name="chkbox0" d="M864 746.667c0 29.455-23.876 53.333-53.333 53.333h-597.333c-29.455 0-53.333-23.878-53.333-53.333v-597.333c0-29.457 23.878-53.333 53.333-53.333h597.333c29.457 0 53.333 23.876 53.333 53.333v597.333zM928 149.333c0-64.802-52.531-117.333-117.333-117.333h-597.333c-64.801 0-117.333 52.531-117.333 117.333v597.333c0 64.801 52.532 117.333 117.333 117.333h597.333c64.802 0 117.333-52.532 117.333-117.333v-597.333z" />
<glyph unicode="&#xe969;" glyph-name="clipboard-list" d="M823.996 510.814c12.497 12.497 32.798 12.497 45.291 0l92.045-92.041c5.995-5.999 9.374-14.144 9.374-22.626s-3.379-16.623-9.374-22.622l-281.293-281.25c-22.639-22.639-51.477-38.097-82.876-44.378l-76.373-15.292c-10.487-2.095-21.35 1.19-28.919 8.751-7.565 7.565-10.846 18.423-8.747 28.915l15.292 76.416c6.276 31.394 21.696 60.241 44.331 82.876l281.25 281.25zM587.998 184.316c-13.7-13.7-23.031-31.172-26.833-50.167l-5.875-29.333 29.333 5.833c19.004 3.802 36.459 13.171 50.167 26.876l258.624 258.624-46.793 46.793-258.624-258.624zM724.501 582.078v54.667c0 17.673 14.327 32 32 32s32-14.327 32-32v-54.667c0-17.673-14.327-32-32-32s-32 14.327-32 32zM138.667 129.084v637.833c0.001 53.617 43.467 97.082 97.083 97.083h325.415c17.677 0 32-14.327 32-32s-14.323-32-32-32h-325.415c-18.27-0.001-33.082-14.813-33.083-33.083v-637.833c0.001-18.27 14.813-33.084 33.083-33.084h146l3.291-0.166c16.127-1.647 28.709-15.27 28.709-31.834s-12.582-30.187-28.709-31.834l-3.291-0.166h-146c-53.617 0-97.082 43.465-97.083 97.084zM548.915 861.585c11.959 4.951 25.724 2.193 34.876-6.959l195.251-195.25c9.152-9.151 11.908-22.919 6.959-34.875-4.954-11.958-16.64-19.75-29.585-19.75h-130.167c-53.615 0-97.084 43.466-97.084 97.083v130.167c0 12.943 7.795 24.63 19.75 29.583zM593.165 701.836c0-18.271 14.814-33.083 33.084-33.083h52.919l-86.003 86v-52.916zM626.249 551.594c17.673 0 32-14.327 32-31.999s-14.327-32-32-32h-325.415c-17.673 0-32 14.327-32 32s14.327 31.999 32 31.999h325.415zM563.793 421.427l3.247-0.166c16.141-1.634 28.753-15.262 28.753-31.834s-12.612-30.199-28.753-31.834l-3.247-0.166h-262.96c-17.673 0-32 14.327-32 32s14.327 32 32 32h262.96zM440.708 291.255c17.673 0 32-14.327 32-32s-14.327-32-32-32h-139.875c-17.673 0-32 14.327-32 32s14.327 32 32 32h139.875z" />
<glyph unicode="&#xe96a;" glyph-name="clock" d="M864 448c0 194.404-157.598 352-352 352-194.404 0-352-157.596-352-352 0-194.402 157.596-352 352-352 194.402 0 352 157.598 352 352zM928 448c0-229.751-186.249-416-416-416s-416 186.249-416 416c0 229.751 186.249 416 416 416s416-186.249 416-416zM480 682.667c0 17.673 14.327 32 32 32s32-14.327 32-32v-221.419l118.626-118.622 2.206-2.419c10.253-12.565 9.51-31.117-2.206-42.833s-30.268-12.459-42.833-2.206l-2.419 2.206-121.749 121.749c-9.993 9.997-15.62 23.561-15.625 37.709v225.835z" />
<glyph unicode="&#xe96e;" glyph-name="close" d="M787.955 769.284c12.497 12.497 32.759 12.497 45.257 0s12.497-32.758 0-45.255l-597.329-597.33c-12.497-12.493-32.758-12.493-45.255 0-12.497 12.497-12.497 32.759 0 45.257l597.328 597.329zM833.289 171.968c12.497-12.497 12.497-32.759 0-45.257s-32.759-12.497-45.252 0l-597.33 597.328c-12.497 12.497-12.497 32.758 0 45.255s32.758 12.497 45.255 0l597.328-597.327z" />
<glyph unicode="&#xe96f;" glyph-name="cloud-drizzle" d="M408.11 812.666c74.561 19.547 157.262 12.54 226.54-28.292 65.050-38.344 115.469-104.936 136.585-200.708 194.223-43.161 267.213-306.878 112.96-441.79l-0.043 0.038c-48.051-43.473-110.601-67.729-175.71-67.247l-3.29 0.209c-16.119 1.762-28.625 15.475-28.501 32.038 0.137 17.668 14.583 31.881 32.252 31.753l9.165 0.166c45.73 1.826 89.446 19.836 123.541 50.833l0.461 0.418c118.767 103.902 54.421 314.526-101.961 334.123-14.059 1.762-25.276 12.559-27.584 26.542-15.057 91.316-58.423 147.876-110.374 178.5-52.702 31.059-117.487 37.309-177.79 21.5-60.312-15.811-113.884-53.105-144.833-106.125-30.504-52.265-40.834-122.845-9.667-209.71 5.969-16.631-2.659-34.944-19.292-40.917-16.631-5.965-34.943 2.667-40.916 19.294-36.881 102.78-26.398 193.346 14.625 263.625 40.583 69.513 109.277 116.201 183.834 135.75zM237.078 455.663c26.739 0.452 53.304-5.026 77.708-15.667l10.333-4.877 2.833-1.626c13.631-8.785 18.645-26.654 11.125-41.417-8.027-15.735-27.299-21.978-43.041-13.956-17.766 9.045-37.392 13.739-56.834 13.581-158.024-11.849-158.308-242.24 0.667-253.538 17.623-1.254 30.907-16.546 29.667-34.167-1.173-16.533-14.7-29.265-30.917-29.751l-3.25 0.085-10.958 1.041c-226.618 26.594-224.259 363.593 10.958 380.25l1.708 0.043zM745.293 587.521c17.664 0.296 32.239-13.793 32.542-31.458 0.299-17.666-13.79-32.236-31.458-32.543-19.861-0.341-39.078-5.12-57.084-14.123-15.804-7.889-35.017-1.468-42.918 14.332-7.893 15.806-1.468 35.016 14.336 42.918 26.364 13.18 54.955 20.364 84.582 20.875zM402.706 129.293c12.497 12.497 32.754 12.497 45.251 0s12.497-32.751 0-45.248l-85.335-85.333c-12.497-12.497-32.753-12.497-45.25 0s-12.497 32.751 0 45.248l85.333 85.333zM573.372 129.293c12.497 12.497 32.755 12.497 45.252 0s12.497-32.751 0-45.248l-85.333-85.333c-12.497-12.497-32.755-12.497-45.252 0s-12.497 32.751 0 45.248l85.333 85.333zM573.372 299.959c12.497 12.497 32.755 12.497 45.252 0s12.497-32.751 0-45.248l-85.333-85.333c-12.497-12.497-32.755-12.497-45.252 0s-12.497 32.751 0 45.248l85.333 85.333zM402.706 299.959c12.497 12.497 32.754 12.497 45.251 0s12.497-32.751 0-45.248l-85.335-85.333c-12.497-12.497-32.753-12.497-45.25 0s-12.497 32.751 0 45.248l85.333 85.333z" />
<glyph unicode="&#xe970;" glyph-name="club-house0" d="M522.667 327.334c-0.004 14.14-5.628 27.708-15.625 37.709l-133.709 133.709v-402.752h149.333v231.334zM160 149.333c0-29.457 23.878-53.333 53.333-53.333h96v402.752l-133.708-133.709c-9.999-10.001-15.622-23.569-15.625-37.709v-178.001zM586.667 96h224c29.457 0 53.333 23.876 53.333 53.333v640c0 2.829-1.126 5.541-3.123 7.542-2.001 2-4.715 3.125-7.543 3.125h-426.667c-2.829 0-5.541-1.125-7.542-3.125s-3.125-4.713-3.125-7.542v-242.75l136.29-136.292c22.003-21.999 34.372-51.844 34.377-82.957v-231.334zM928 149.333c0-64.802-52.531-117.333-117.333-117.333h-597.333c-64.801 0-117.333 52.531-117.333 117.333v178.001c0.003 31.113 12.374 60.958 34.375 82.957l188.334 188.334 2.417 2.208c8.83 7.203 20.587 8.89 30.875 5.25v183.25c0 19.803 7.872 38.789 21.875 52.791s32.989 21.875 52.791 21.875h426.667c19.802 0 38.788-7.872 52.791-21.875s21.875-32.989 21.875-52.791v-640zM512 660.916v0.417c0 23.564 19.102 42.667 42.667 42.667s42.667-19.103 42.667-42.667v-0.417c0-23.564-19.102-42.667-42.667-42.667s-42.667 19.103-42.667 42.667zM682.667 660.916v0.417c0 23.564 19.102 42.667 42.667 42.667s42.667-19.103 42.667-42.667v-0.417c0-23.564-19.102-42.667-42.667-42.667s-42.667 19.103-42.667 42.667zM682.667 490.249v0.418c0 23.565 19.102 42.667 42.667 42.667s42.667-19.102 42.667-42.667v-0.418c0-23.565-19.102-42.667-42.667-42.667s-42.667 19.102-42.667 42.667zM682.667 319.582v0.418c0 23.565 19.102 42.667 42.667 42.667s42.667-19.102 42.667-42.667v-0.418c0-23.565-19.102-42.667-42.667-42.667s-42.667 19.102-42.667 42.667z" />
<glyph unicode="&#xe977;" glyph-name="compass" d="M682.795 645.981c16.661 5.465 32.465-10.409 26.918-27.041l-85.542-256.209-1.877-4.625c-4.928-10.492-13.948-18.615-25.079-22.332l-256.294-85.542c-16.613-5.534-32.427 10.185-27 26.833l83.917 257.083c4.222 12.917 14.337 23.056 27.25 27.292l257.708 84.541zM455.296 503.979l-54.251-166.208 165.751 55.377 55.292 165.583-166.793-54.752zM864 448c0 194.404-157.598 352-352 352-194.404 0-352-157.596-352-352 0-194.402 157.596-352 352-352 194.402 0 352 157.598 352 352zM928 448c0-229.751-186.249-416-416-416s-416 186.249-416 416c0 229.751 186.249 416 416 416s416-186.249 416-416z" />
<glyph unicode="&#xe978;" glyph-name="dark-light" d="M703.876 447.979c0 105.998-85.922 191.948-191.919 191.959-106.003 0-191.957-85.955-191.957-191.959 0.011-105.993 85.961-191.915 191.957-191.915 105.988 0.009 191.906 85.926 191.919 191.915zM767.876 447.979c-0.013-141.333-114.586-255.906-255.919-255.915-141.342 0-255.946 114.573-255.957 255.915 0 141.351 114.608 255.959 255.957 255.959 141.342-0.012 255.919-114.615 255.919-255.959zM512 255.834c106.121 0 192.149 86.037 192.149 192.166 0 106.131-86.029 192.167-192.149 192.167v-384.333zM480 778.667v53.333c0 17.673 14.327 32 32 32s32-14.327 32-32v-53.333c0-17.673-14.327-32-32-32s-32 14.327-32 32zM723.162 704.452l37.713 37.712c12.493 12.497 32.755 12.497 45.252 0s12.497-32.758 0-45.255l-37.713-37.712c-12.497-12.497-32.755-12.497-45.252 0s-12.497 32.758 0 45.255zM768.329 236.873l37.709-37.713c12.497-12.497 12.497-32.759 0-45.257-12.493-12.497-32.755-12.497-45.252 0l-37.713 37.713c-12.497 12.497-12.497 32.759 0 45.257s32.759 12.497 45.257 0zM842.667 480.030h53.333c17.673 0 32-14.327 32-32s-14.327-32-32-32h-53.333c-17.673 0-32 14.327-32 32s14.327 32 32 32zM480 64.068v53.333c0 17.673 14.327 32 32 32s32-14.327 32-32v-53.333c0-17.673-14.327-32-32-32s-32 14.327-32 32zM217.827 199.155l37.712 37.713c12.497 12.497 32.758 12.497 45.255 0s12.497-32.759 0-45.257l-37.712-37.713c-12.497-12.497-32.758-12.497-45.255 0s-12.497 32.759 0 45.257zM263.16 742.168l37.712-37.712c12.497-12.497 12.497-32.758 0-45.255s-32.758-12.497-45.255 0l-37.712 37.712c-12.497 12.497-12.497 32.758 0 45.255s32.758 12.497 45.255 0zM128 480.030h53.333c17.673 0 32-14.327 32-32s-14.327-32-32-32h-53.333c-17.673 0-32 14.327-32 32s14.327 32 32 32z" />
<glyph unicode="&#xe979;" glyph-name="deferral-spending" d="M953.583 217.613c-0.009 109.564-88.815 198.366-198.374 198.379-109.568 0-198.409-88.811-198.417-198.379 0-109.572 88.845-198.413 198.417-198.413 109.564 0.009 198.374 88.845 198.374 198.413zM236.667 388.783l3.291-0.166c16.126-1.651 28.709-15.275 28.709-31.834-0.004-16.559-12.585-30.187-28.709-31.834l-3.291-0.166h-39.334c-17.67 0-31.995 14.327-32 32 0 17.673 14.327 32 32 32h39.334zM453.001 388.783c17.673 0 32-14.327 32-32-0.004-17.673-14.332-32-32-32h-39.334c-17.67 0-31.995 14.327-32 32 0 17.673 14.327 32 32 32h39.334zM236.667 546.115l3.291-0.167c16.126-1.648 28.709-15.273 28.709-31.831-0.005-16.559-12.585-30.187-28.709-31.834l-3.291-0.166h-39.334c-17.67 0-31.995 14.327-32 32 0 17.673 14.327 31.998 32 31.998h39.334zM453.001 546.115l3.29-0.167c16.128-1.648 28.71-15.273 28.71-31.831-0.004-16.559-12.587-30.187-28.71-31.834l-3.29-0.166h-39.334c-17.67 0-31.995 14.327-32 32 0 17.673 14.327 31.998 32 31.998h39.334zM669.333 546.115l3.251-0.167c16.145-1.63 28.749-15.26 28.749-31.831-0.004-16.572-12.608-30.208-28.749-31.834l-3.251-0.166h-39.334c-17.668 0-31.996 14.327-32 32 0 17.673 14.327 31.998 32 31.998h39.334zM794.667 533.325v117.332h-722.667v-307.168c0.002-52.535 11.617-89.839 31-113.498 18.479-22.545 47.744-37.21 94.125-37.21l246.207-0.166c16.132-1.643 28.71-15.27 28.71-31.834-0.004-16.559-12.582-30.191-28.71-31.834l-3.29-0.166h-242.918c-61.117 0-110.426 20.147-143.625 60.668-32.292 39.415-45.498 93.474-45.5 154.039v368.21c0.003 58.031 13.358 107.232 47.625 141.5 34.271 34.259 83.469 47.583 141.5 47.583h26.875v25.083c0 17.673 14.327 32 32 32s32-14.327 32-32v-25.083h294.417v25.083c0 17.673 14.327 32 32 32 17.664-0.009 32-14.332 32-32v-25.083h23.125c61.555 0 110.596-17.392 143.791-53.292 32.764-35.435 45.329-83.773 45.333-135.792v-178.373c-0.004-17.673-14.332-32-32-32s-31.996 14.327-32 32zM582.417 797.865v38.917h-294.417v-38.917c-0.001-17.672-14.327-32-32-32s-31.999 14.328-32 32v38.917h-26.875c-49.472 0-78.844-11.468-96.25-28.875-17.052-17.055-28.34-45.577-28.792-93.25h722.498c-0.469 41.116-10.697 70.391-28.25 89.375-17.549 18.976-47.104 32.75-96.789 32.75h-23.125v-38.917c0-17.667-14.336-31.991-32-32-17.673 0-32 14.328-32 32zM1017.583 217.613c0-144.913-117.461-262.404-262.374-262.413-144.922 0-262.417 117.495-262.417 262.413 0.009 144.913 117.504 262.379 262.417 262.379 144.905-0.013 262.366-117.47 262.374-262.379zM763.089 86.221c41.126 0 77.133 24.973 87.543 60.958 5.359 18.53 3.371 39.023-7.834 57.25-10.974 17.835-29.146 30.933-51.793 39.292-14.259 5.261-27.908 10.799-38.042 15.040-5.052 2.116-9.22 3.883-12.083 5.124-0.35 0.154-0.687 0.282-0.998 0.418-1.233 1.271-1.788 3.017-1.374 5.291 0.26 1.446 0.964 3.029 2.291 4.501 1.271 1.408 3.571 3.183 7.667 4.416 23.735 7.138 42.261-7.996 47.373-11.836 14.131-10.611 34.219-7.753 44.834 6.379 10.603 14.127 7.744 34.176-6.374 44.791l-9.25 6.707c-5.393 3.541-12.791 7.787-21.833 11.456-18.202 7.386-43.964 12.617-73.25 3.793-60.198-18.15-77.022-95.42-23.919-130.039l4.416-2.419h0.043l0.333-0.166c0.226-0.098 0.58-0.23 1.003-0.418 0.836-0.367 2.044-0.913 3.58-1.583 3.085-1.335 7.492-3.221 12.834-5.457 10.662-4.463 25.22-10.359 40.627-16.043 13.065-4.817 17.865-10.266 19.418-12.791 1.314-2.142 1.421-3.878 0.832-5.914-1.493-5.163-9.655-14.75-26.044-14.75-6.997 0.004-17.587 3.221-28.663 8.832-5.124 2.594-9.506 5.269-12.544 7.373-1.293 0.9-2.176 1.562-2.667 1.958-10.667 11.844-28.702 14.174-42.082 4.791-14.468-10.146-17.98-30.11-7.834-44.582l4.706-5.5c1.51-1.51 2.842-2.684 3.712-3.418 2.351-1.984 5.009-3.977 7.748-5.875 5.5-3.806 12.373-7.987 20.041-11.874 14.528-7.356 35.789-15.701 57.583-15.706zM723.665 349.867v-37.461c0-17.673 14.327-32 32-32 17.677 0 32 14.327 32 32v37.461c0 17.673-14.323 32-32 32-17.673 0-32-14.327-32-32zM726.498 118.221v-37.461c0-17.673 14.327-32 32-32 17.677 0 32 14.327 32 32v37.461c0 17.673-14.323 32-32 32-17.673 0-32-14.327-32-32z" />
<glyph unicode="&#xe97a;" glyph-name="delete" d="M949.333 704c0 14.145-5.623 27.706-15.625 37.708s-23.565 15.625-37.709 15.625h-540.124l-270.708-309.333 270.708-309.333h540.124c14.144 0 27.708 5.623 37.709 15.625s15.625 23.565 15.625 37.709v512zM1013.333 192c0-31.117-12.369-60.954-34.372-82.957-22.007-22.007-51.84-34.377-82.961-34.377h-554.666c-9.225 0-18.007 3.977-24.083 10.918l-298.667 341.333c-10.557 12.062-10.557 30.101 0 42.163l298.667 341.335 2.417 2.458c5.876 5.408 13.597 8.458 21.667 8.458h554.666c31.121 0 60.954-12.371 82.961-34.375 22.003-22.004 34.372-51.84 34.372-82.959v-512zM745.374 598.627c12.497 12.497 32.751 12.497 45.248 0s12.497-32.753 0-45.25l-256-255.999c-12.497-12.497-32.751-12.497-45.248 0s-12.497 32.751 0 45.248l256 256.001zM489.374 598.627c12.497 12.497 32.751 12.497 45.248 0l258.21-258.416c10.253-12.57 9.506-31.117-2.21-42.833s-30.263-12.463-42.833-2.21l-2.415 2.21-256 255.999c-12.497 12.497-12.497 32.753 0 45.25z" />
<glyph unicode="&#xe97b;" glyph-name="device" d="M338.833 261.547c0 17.673 14.327 32 32 32s32-14.327 32-32v-80.209h141.585c17.673 0 32-14.327 32-32-0.004-17.668-14.332-32-32-32h-173.585c-17.671 0-31.996 14.332-32 32v112.209zM838.665 618.349v179.375c0 5.891-4.774 10.667-10.667 10.667h-667.998c-5.891 0-10.667-4.776-10.667-10.667v-345.624h397.124c17.664-0.009 31.996-14.336 32-32 0-17.668-14.332-31.991-32-32h-397.124v-52.335c0.003-5.888 4.777-10.667 10.667-10.667h386.458c17.668-0.009 32-14.332 32-32 0-17.664-14.336-31.991-32-32h-386.458c-41.236 0-74.664 33.434-74.667 74.667v461.959c0 41.237 33.429 74.667 74.667 74.667h667.998c41.237 0 74.667-33.43 74.667-74.667v-179.375c-0.009-17.664-14.332-32-32-32-17.664 0-31.987 14.336-32 32zM874.667 576.010c0 5.89-4.779 10.665-10.667 10.667h-268.335c-5.888 0-10.667-4.775-10.667-10.667v-482.084c0-5.892 4.779-10.667 10.667-10.667h268.335c5.888 0.004 10.667 4.779 10.667 10.667v482.084zM938.667 93.926c0-41.237-33.429-74.662-74.667-74.667h-268.335c-41.237 0-74.667 33.429-74.667 74.667v482.084c0 41.237 33.429 74.667 74.667 74.667h268.335c41.237-0.002 74.667-33.431 74.667-74.667v-482.084zM894.208 543.995c17.673 0 32-14.327 32-31.999s-14.327-32-32-32h-328.875c-17.673 0-32 14.327-32 32s14.327 31.999 32 31.999h328.875zM894.208 202.662c17.673 0 32-14.327 32-32s-14.327-32-32-32h-328.875c-17.673 0-32 14.327-32 32s14.327 32 32 32h328.875z" />
</font>
</defs>
</svg>
